<?xml version="1.0" standalone="no"?>
<!DOCTYPE svg PUBLIC "-//W3C//DTD SVG 1.1//EN" "http://www.w3.org/Graphics/SVG/1.1/DTD/svg11.dtd" >
<svg xmlns="http://www.w3.org/2000/svg" xmlns:xlink="http://www.w3.org/1999/xlink" version="1.1">
<metadata>
Created by FontForge 20170731 at Tue May 27 14:23:58 2014
 By Aleksey,,,
Copyright (c) 2014 by Julieta Ulanovsky. All rights reserved.
</metadata>
<defs>
<font id="Montserrat-Hairline" horiz-adv-x="606" >
  <font-face 
    font-family="Montserrat Hairline"
    font-weight="250"
    font-stretch="normal"
    units-per-em="1000"
    panose-1="0 0 3 0 0 0 0 0 0 0"
    ascent="800"
    descent="-200"
    x-height="517"
    cap-height="699"
    bbox="-280 -204 1278 964"
    underline-thickness="50"
    underline-position="-200"
    unicode-range="U+0020-FB02"
  />
<missing-glyph horiz-adv-x="500" 
d="M0 0v700h500v-700h-500zM250 395l170 255h-340zM280 350l170 -255v510zM80 50h340l-170 255zM50 605v-510l170 255z" />
    <glyph glyph-name="fi" unicode="fi" horiz-adv-x="535" 
d="M117 517v73q0 69 42.5 116t103.5 46q50 -2 90 -29v-24q-41 31 -90 33q-53 1 -89.5 -40t-36.5 -102v-73h168v-20h-168v-497h-20v497h-65v20h65zM415 692q11 0 18.5 -8t7.5 -18t-7.5 -18t-18.5 -8t-18.5 8t-7.5 18t7.5 18t18.5 8zM405 517h20v-517h-20v517z" />
    <glyph glyph-name="fl" unicode="fl" horiz-adv-x="545" 
d="M117 517v73q0 69 42.5 116t103.5 46q50 -2 90 -29v-24q-41 31 -90 33q-53 1 -89.5 -40t-36.5 -102v-73h168v-20h-168v-497h-20v497h-65v20h65zM430 742v-742h-20v742h20z" />
    <glyph glyph-name=".notdef" horiz-adv-x="500" 
d="M0 0v700h500v-700h-500zM250 395l170 255h-340zM280 350l170 -255v510zM80 50h340l-170 255zM50 605v-510l170 255z" />
    <glyph glyph-name=".null" horiz-adv-x="0" 
 />
    <glyph glyph-name="nonmarkingreturn" horiz-adv-x="333" 
 />
    <glyph glyph-name="space" unicode=" " horiz-adv-x="300" 
 />
    <glyph glyph-name="exclam" unicode="!" horiz-adv-x="192" 
d="M106 188h-20v494h20v-494zM96 45q10 0 18 -7.5t8 -18.5t-8 -18.5t-18 -7.5t-18 7.5t-8 18.5t8 18.5t18 7.5z" />
    <glyph glyph-name="quotedbl" unicode="&#x22;" horiz-adv-x="236" 
d="M80 509h-20v190h20v-190zM176 509h-20v190h20v-190z" />
    <glyph glyph-name="numbersign" unicode="#" horiz-adv-x="707" 
d="M627 208h-151l-26 -208h-20l26 208h-240l-26 -208h-20l26 208h-149l-1 20h152l30 240h-149l-1 20h152l26 211h20l-26 -211h240l26 211h20l-26 -211h148l1 -20h-151l-30 -240h148zM458 228l30 240h-240l-30 -240h240z" />
    <glyph glyph-name="dollar" unicode="$" horiz-adv-x="593" 
d="M300 679v-310q43 -13 65.5 -20.5t56.5 -24.5t51.5 -35.5t30.5 -49t13 -69.5q0 -74 -58.5 -120t-158.5 -50v-119h-20v119q-66 0 -130.5 26.5t-108.5 71.5l14 14q40 -42 101 -67t124 -25v334q-37 11 -60.5 20t-53.5 25t-46.5 34t-28.5 46.5t-12 64.5q0 66 54.5 107.5
t146.5 46.5v106h20v-105h2q107 0 186 -51l-10 -16q-73 47 -176 47h-2zM99 544q0 -38 14 -66.5t42.5 -47.5t55.5 -30.5t69 -24.5v303q-83 -5 -132 -41t-49 -93zM497 170q0 34 -11.5 60.5t-27.5 43.5t-45.5 32t-52 23t-60.5 19v-328q91 4 144 44.5t53 105.5z" />
    <glyph glyph-name="percent" unicode="%" horiz-adv-x="892" 
d="M217 699q81 0 125 -53t44 -150q0 -98 -44 -150.5t-125 -52.5q-80 0 -123.5 52.5t-43.5 150.5t43.5 150.5t123.5 52.5zM156 0l538 699h26l-538 -699h-26zM217 681q-71 0 -108.5 -47.5t-37.5 -137.5t37.5 -137.5t108.5 -47.5t109 47.5t38 137.5t-38 137.5t-109 47.5z
M673 406q81 0 125 -53t44 -150q0 -98 -44 -150.5t-125 -52.5q-80 0 -123.5 52.5t-43.5 150.5t43.5 150.5t123.5 52.5zM673 388q-71 0 -108.5 -47.5t-37.5 -137.5t37.5 -137.5t108.5 -47.5t109 47.5t38 137.5t-38 137.5t-109 47.5z" />
    <glyph glyph-name="ampersand" unicode="&#x26;" horiz-adv-x="626" 
d="M487 145l132 -132l-13 -13q-48 49 -131 130q-105 -130 -225 -130q-79 0 -134.5 52.5t-55.5 130.5q0 71 45 116.5t127 88.5q-81 103 -81 174q0 58 43 97.5t110 39.5q63 0 101 -35.5t38 -92.5q0 -34 -13.5 -61t-46 -52.5t-53 -38t-68.5 -38.5q54 -67 210 -221q48 65 86 151
l19 -12q-42 -91 -90 -154zM171 562q0 -67 78 -165q37 20 53 28.5t45 27.5t41.5 34t23.5 37.5t11 47.5q0 48 -32.5 77.5t-86.5 29.5q-59 0 -96 -33.5t-37 -83.5zM250 20q112 0 211 125q-160 158 -216 227q-38 -21 -62.5 -37t-50.5 -39t-39 -51.5t-13 -61.5q0 -70 49.5 -116.5
t120.5 -46.5z" />
    <glyph glyph-name="quotesingle" unicode="'" horiz-adv-x="140" 
d="M80 509h-20v190h20v-190z" />
    <glyph glyph-name="parenleft" unicode="(" horiz-adv-x="276" 
d="M216 742h20q-113 -169 -113 -433t113 -433h-20q-113 169 -113 433t113 433z" />
    <glyph glyph-name="parenright" unicode=")" horiz-adv-x="276" 
d="M40 742h20q113 -169 113 -433t-113 -433h-20q113 169 113 433t-113 433z" />
    <glyph glyph-name="asterisk" unicode="*" horiz-adv-x="298" 
d="M158 574v-117h-18v117l-101 -59l-9 17l100 58l-100 58l9 17l101 -59v117h18v-117l101 59l9 -17l-101 -58l101 -58l-9 -17z" />
    <glyph glyph-name="plus" unicode="+" horiz-adv-x="480" 
d="M440 310h-190v-190h-20v190h-190v20h190v190h20v-190h190v-20z" />
    <glyph glyph-name="comma" unicode="," horiz-adv-x="170" 
d="M87 45q11 0 18.5 -8t7.5 -19q0 -10 -10 -25l-31 -47h-20l27 47q-18 7 -18 26q0 11 7.5 18.5t18.5 7.5z" />
    <glyph glyph-name="hyphen" unicode="-" horiz-adv-x="357" 
d="M287 290h-217v20h217v-20z" />
    <glyph glyph-name="period" unicode="." horiz-adv-x="170" 
d="M85 45q11 0 18.5 -7.5t7.5 -18.5t-7.5 -18.5t-18.5 -7.5t-18.5 7.5t-7.5 18.5t7.5 18.5t18.5 7.5z" />
    <glyph glyph-name="slash" unicode="/" horiz-adv-x="294" 
d="M25 -130h-21l306 956h21z" />
    <glyph glyph-name="zero" unicode="0" horiz-adv-x="673" 
d="M336 699q133 0 205 -90.5t72 -258.5q0 -169 -71.5 -259.5t-205.5 -90.5q-133 0 -204.5 90.5t-71.5 259.5q0 168 71.5 258.5t204.5 90.5zM336 679q-124 0 -190 -85t-66 -244t66 -244.5t190 -85.5t190.5 85.5t66.5 244.5t-66.5 244t-190.5 85z" />
    <glyph glyph-name="one" unicode="1" horiz-adv-x="345" 
d="M192 0h-20v679h-150v20h170v-699z" />
    <glyph glyph-name="two" unicode="2" horiz-adv-x="570" 
d="M258 699q92 0 144.5 -43.5t52.5 -119.5q0 -45 -32 -104.5t-88 -117.5l-264 -294h436v-20h-456v28l270 300q53 55 83.5 111t30.5 97q0 67 -47 105t-130 38q-51 0 -102.5 -22.5t-89.5 -62.5l-14 14q41 43 96 67t110 24z" />
    <glyph glyph-name="three" unicode="3" horiz-adv-x="508" 
d="M166 394h42q107 0 170.5 -48.5t63.5 -134.5q0 -95 -63 -153t-169 -58q-108 0 -197 59l12 16q82 -55 185 -55q98 0 155 52t57 135q0 81 -56.5 124t-157.5 43h-70v18l244 287h-341v20h368v-18z" />
    <glyph glyph-name="four" unicode="4" horiz-adv-x="543" 
d="M54 228h318v223h20v-223h112v-20h-112v-208h-20v208h-338v25l268 466h23z" />
    <glyph glyph-name="five" unicode="5" horiz-adv-x="547" 
d="M462 679h-353v-290q81 28 153 28q103 0 164 -52.5t61 -140.5q0 -101 -61.5 -161.5t-165.5 -60.5q-52 0 -110 18.5t-105 49.5l10 16q45 -29 101 -46.5t104 -17.5q95 0 151 55t56 147q0 79 -56 126t-149 47q-85 0 -173 -36v338h373v-20z" />
    <glyph glyph-name="six" unicode="6" horiz-adv-x="587" 
d="M326 699q88 0 181 -44l-10 -18q-81 42 -169 42q-131 0 -196 -115t-48 -315q17 88 79 138.5t157 50.5q101 0 159 -57.5t58 -158.5q0 -103 -60 -162.5t-161 -59.5q-121 0 -188.5 85.5t-67.5 245.5q0 167 71.5 267.5t194.5 100.5zM320 418q-99 0 -159 -60t-60 -142
q0 -31 12.5 -64t36.5 -63.5t66 -49.5t95 -19q92 0 149 55.5t57 148.5q0 89 -53.5 141.5t-143.5 52.5z" />
    <glyph glyph-name="seven" unicode="7" horiz-adv-x="529" 
d="M492 674l-310 -674h-22l313 679h-410v-112h-20v132h449v-25z" />
    <glyph glyph-name="eight" unicode="8" horiz-adv-x="601" 
d="M301 699q97 0 152.5 -44t55.5 -122q0 -119 -129 -159q77 -18 119 -64t42 -116q0 -92 -64 -143t-176 -51q-113 0 -177 51t-64 143q0 70 42 116t119 64q-129 40 -129 159q0 78 56 122t153 44zM301 679q-88 0 -138.5 -39.5t-50.5 -108.5q0 -70 50.5 -110t138.5 -40t138 40
t50 110q0 69 -50 108.5t-138 39.5zM300 361q-102 0 -161 -44.5t-59 -120.5q0 -82 58.5 -129t162.5 -47q102 0 161 46.5t59 128.5q0 77 -59 121.5t-162 44.5z" />
    <glyph glyph-name="nine" unicode="9" horiz-adv-x="587" 
d="M271 0q-88 0 -181 44l10 18q81 -42 169 -42q131 0 196 115t48 315q-17 -88 -79 -138.5t-157 -50.5q-101 0 -159 57.5t-58 158.5q0 103 60 162.5t161 59.5q121 0 188.5 -85.5t67.5 -245.5q0 -167 -71.5 -267.5t-194.5 -100.5zM277 281q99 0 159 60t60 142q0 31 -12.5 64
t-36.5 63.5t-66 49.5t-95 19q-92 0 -149 -55.5t-57 -148.5q0 -89 53.5 -141.5t143.5 -52.5z" />
    <glyph glyph-name="colon" unicode=":" horiz-adv-x="170" 
d="M85 342q11 0 18.5 -8t7.5 -18t-7.5 -18t-18.5 -8t-18.5 8t-7.5 18t7.5 18t18.5 8zM85 45q11 0 18.5 -7.5t7.5 -18.5t-7.5 -18.5t-18.5 -7.5t-18.5 7.5t-7.5 18.5t7.5 18.5t18.5 7.5z" />
    <glyph glyph-name="semicolon" unicode=";" horiz-adv-x="170" 
d="M85 290q-11 0 -18.5 8t-7.5 18t7.5 18t18.5 8t18.5 -8t7.5 -18t-7.5 -18t-18.5 -8zM87 45q11 0 18.5 -8t7.5 -19q0 -10 -10 -25l-31 -47h-20l27 47q-18 7 -18 26q0 11 7.5 18.5t18.5 7.5z" />
    <glyph glyph-name="less" unicode="&#x3c;" horiz-adv-x="480" 
d="M440 505l-381 -177l381 -177v-22l-400 186v26l400 186v-22z" />
    <glyph glyph-name="equal" unicode="=" horiz-adv-x="480" 
d="M440 410h-400v20h400v-20zM440 210h-400v20h400v-20z" />
    <glyph glyph-name="greater" unicode="&#x3e;" horiz-adv-x="480" 
d="M40 151l381 177l-381 177v22l400 -186v-26l-400 -186v22z" />
    <glyph glyph-name="question" unicode="?" horiz-adv-x="395" 
d="M28 534l-20 2q5 68 52 105.5t122 37.5q77 0 125 -38.5t48 -112.5q0 -47 -17 -82.5t-41 -58.5t-48 -45t-41 -56.5t-17 -79.5h-20q0 48 17 84t41 58.5l48 45t41 56.5t17 79q0 64 -42 97t-112 33q-68 0 -108.5 -32t-44.5 -93zM178 45q10 0 18 -7.5t8 -18.5t-8 -18.5
t-18 -7.5t-18 7.5t-8 18.5t8 18.5t18 7.5z" />
    <glyph glyph-name="at" unicode="@" horiz-adv-x="1006" 
d="M507 721q195 0 322 -131t127 -331q0 -125 -41 -200t-110 -75q-39 0 -66 31t-27 81v64q-28 -71 -90 -112.5t-143 -41.5q-109 0 -181 73.5t-72 186.5t71.5 187t181.5 74q81 0 143 -41.5t90 -112.5v152h20v-429q0 -41 22 -66.5t53 -25.5q59 0 94 69.5t35 185.5
q0 192 -121.5 317t-307.5 125q-190 0 -313.5 -124t-123.5 -315q0 -182 120 -301t304 -119q42 0 93 12.5t86 31.5l8 -18q-38 -20 -91 -33t-96 -13q-193 0 -318.5 124.5t-125.5 315.5q0 199 129.5 329t327.5 130zM479 507q-101 0 -167 -68.5t-66 -172.5t66 -172t167 -68
t167 68t66 172t-66 172.5t-167 68.5z" />
    <glyph glyph-name="A" unicode="A" horiz-adv-x="686" 
d="M555 213h-424l-97 -213h-24l320 699h22l324 -699h-23zM546 233l-205 443l-201 -443h406z" />
    <glyph glyph-name="B" unicode="B" horiz-adv-x="731" 
d="M128 699h281q101 0 157 -45.5t56 -127.5q0 -66 -36 -108.5t-102 -53.5q83 -10 129 -56.5t46 -120.5q0 -89 -65.5 -138t-184.5 -49h-281v699zM148 679v-307h261q92 0 142.5 40t50.5 114q0 73 -50.5 113t-142.5 40h-261zM148 353v-333h261q110 0 170.5 44t60.5 124
q0 79 -60.5 122t-170.5 43h-261z" />
    <glyph glyph-name="C" unicode="C" horiz-adv-x="705" 
d="M409 699q137 0 240 -90l-13 -13q-95 84 -227 84q-140 0 -240 -97t-100 -233q0 -137 100 -234t240 -97q131 0 227 85l14 -13q-104 -91 -241 -91q-148 0 -253.5 103t-105.5 247t105.5 246.5t253.5 102.5z" />
    <glyph glyph-name="D" unicode="D" horiz-adv-x="811" 
d="M128 699h275q148 0 253 -102.5t105 -247.5q0 -144 -105 -246.5t-253 -102.5h-275v699zM148 679v-659h255q139 0 238.5 96.5t99.5 232.5t-99 233t-239 97h-255z" />
    <glyph glyph-name="E" unicode="E" horiz-adv-x="644" 
d="M565 679h-417v-309h371v-20h-371v-330h431v-20h-451v699h437v-20z" />
    <glyph glyph-name="F" unicode="F" horiz-adv-x="545" 
d="M535 679h-387v-336h341v-20h-341v-323h-20v699h407v-20z" />
    <glyph glyph-name="G" unicode="G" horiz-adv-x="760" 
d="M650 343v-252q-104 -91 -241 -91q-148 0 -253.5 103t-105.5 247t105.5 246.5t253.5 102.5q137 0 240 -90l-13 -13q-95 84 -227 84q-140 0 -240 -97t-100 -233q0 -137 100 -234t240 -97q127 0 221 80v244h20z" />
    <glyph glyph-name="H" unicode="H" horiz-adv-x="799" 
d="M671 0h-20v343h-503v-343h-20v699h20v-336h503v336h20v-699z" />
    <glyph glyph-name="I" unicode="I" horiz-adv-x="276" 
d="M148 0h-20v699h20v-699z" />
    <glyph glyph-name="J" unicode="J" horiz-adv-x="459" 
d="M349 699v-502q0 -95 -44.5 -146t-127.5 -51q-106 0 -174 98l14 14q63 -92 160 -92q74 0 113 45.5t39 131.5v482h-262v20h282z" />
    <glyph glyph-name="K" unicode="K" horiz-adv-x="670" 
d="M613 0l-300 370l-165 -179v-191h-20v699h20v-479l442 479h28l-291 -314l313 -385h-27z" />
    <glyph glyph-name="L" unicode="L" horiz-adv-x="491" 
d="M148 20h313v-20h-333v699h20v-679z" />
    <glyph glyph-name="M" unicode="M" horiz-adv-x="914" 
d="M786 0h-20l-1 680l-307 -603h-2l-308 603v-680h-20v699h35l295 -579l293 579h35v-699z" />
    <glyph glyph-name="N" unicode="N" horiz-adv-x="799" 
d="M671 0h-30l-493 679v-679h-20v699h30l493 -679v679h20v-699z" />
    <glyph glyph-name="O" unicode="O" horiz-adv-x="818" 
d="M409 699q148 0 253.5 -102.5t105.5 -246.5t-105.5 -247t-253.5 -103t-253.5 103t-105.5 247t105.5 246.5t253.5 102.5zM409 679q-140 0 -239.5 -96.5t-99.5 -232.5t100 -233t239 -97t239 97t100 233t-99.5 232.5t-239.5 96.5z" />
    <glyph glyph-name="P" unicode="P" horiz-adv-x="662" 
d="M128 699h237q127 0 197 -59.5t70 -167.5q0 -110 -70 -171t-197 -61h-217v-240h-20v699zM148 679v-419h217q118 0 182.5 55.5t64.5 156.5q0 99 -64.5 153t-182.5 54h-217z" />
    <glyph glyph-name="Q" unicode="Q" horiz-adv-x="839" 
d="M794 -34l14 -14q-80 -76 -160 -76q-101 0 -217 125l-22 -1q-148 0 -253.5 103t-105.5 247t105.5 246.5t253.5 102.5t253.5 -102.5t105.5 -246.5q0 -131 -90 -230.5t-222 -116.5q107 -108 192 -108q70 0 146 71zM70 350q0 -136 100 -233t239 -97t239 97t100 233
t-99.5 232.5t-239.5 96.5t-239.5 -96.5t-99.5 -232.5z" />
    <glyph glyph-name="R" unicode="R" horiz-adv-x="722" 
d="M632 472q0 -90 -47 -147.5t-134 -76.5l181 -248h-25l-178 244q-40 -4 -64 -4h-217v-240h-20v699h237q127 0 197 -59.5t70 -167.5zM148 260h217q118 0 182.5 55.5t64.5 156.5q0 99 -64.5 153t-182.5 54h-217v-419z" />
    <glyph glyph-name="S" unicode="S" horiz-adv-x="593" 
d="M302 699q107 0 186 -51l-10 -16q-73 47 -176 47q-92 0 -147.5 -37t-55.5 -98q0 -47 23 -80t60 -51t82 -32t89.5 -29t81.5 -35t59.5 -57t22.5 -90q0 -77 -64.5 -123.5t-172.5 -46.5q-66 0 -130.5 26.5t-108.5 71.5l14 14q40 -42 101 -67t124 -25q99 0 158 41t59 109
q0 49 -22.5 83t-59.5 52.5t-81.5 32.5t-89.5 28.5t-82 34t-60 56t-23 87.5q0 70 61 112.5t162 42.5z" />
    <glyph glyph-name="T" unicode="T" horiz-adv-x="526" 
d="M513 679h-240v-679h-20v679h-240v20h500v-20z" />
    <glyph glyph-name="U" unicode="U" horiz-adv-x="774" 
d="M664 699v-415q0 -136 -72.5 -210t-204.5 -74t-204.5 74t-72.5 210v415h20v-415q0 -126 67.5 -195t189.5 -69t189.5 69t67.5 195v415h20z" />
    <glyph glyph-name="V" unicode="V" horiz-adv-x="626" 
d="M324 0h-22l-292 699h23l280 -676l279 676h24z" />
    <glyph glyph-name="W" unicode="W" horiz-adv-x="987" 
d="M740 0h-21l-225 671l-226 -671h-21l-237 699h23l225 -676l224 676h23l225 -676l224 676h23z" />
    <glyph glyph-name="X" unicode="X" horiz-adv-x="623" 
d="M318 362l262 -362h-24l-250 346l-249 -346h-24l261 362l-242 337h24l230 -320l231 320h24z" />
    <glyph glyph-name="Y" unicode="Y" 
d="M315 269v-269h-20v269l-285 430h24l271 -410l267 410h24z" />
    <glyph glyph-name="Z" unicode="Z" horiz-adv-x="650" 
d="M595 674l-523 -654h526v-20h-546v25l523 654h-509v20h529v-25z" />
    <glyph glyph-name="bracketleft" unicode="[" horiz-adv-x="317" 
d="M277 722h-129v-826h129v-20h-149v866h149v-20z" />
    <glyph glyph-name="backslash" unicode="\" horiz-adv-x="294" 
d="M-16 826l306 -956h-21l-306 956h21z" />
    <glyph glyph-name="bracketright" unicode="]" horiz-adv-x="317" 
d="M189 742v-866h-149v20h129v826h-129v20h149z" />
    <glyph glyph-name="asciicircum" unicode="^" horiz-adv-x="478" 
d="M416 128l-177 381l-177 -381h-22l186 400h26l186 -400h-22z" />
    <glyph glyph-name="underscore" unicode="_" horiz-adv-x="537" 
d="M537 -204h-537v20h537v-20z" />
    <glyph glyph-name="grave" unicode="`" horiz-adv-x="350" 
d="M256 624h-32l-129 105l19 10z" />
    <glyph glyph-name="a" unicode="a" horiz-adv-x="562" 
d="M449 0l-1 117q-66 -117 -217 -117q-74 0 -121 42t-47 107q0 63 51.5 98t140.5 35h192v63q-1 73 -42.5 112.5t-121.5 39.5q-89 0 -181 -72l-12 16q96 76 193 76q88 0 135.5 -46t48.5 -126l2 -345h-20zM232 20q159 0 216 142l-1 100h-192q-82 0 -127 -29.5t-45 -83.5
q0 -58 40.5 -93.5t108.5 -35.5z" />
    <glyph glyph-name="b" unicode="b" horiz-adv-x="669" 
d="M366 517q109 0 180 -73.5t71 -185.5t-71 -185t-180 -73q-80 0 -141.5 41t-89.5 111v-152h-20v742h20v-377q28 70 89.5 111t141.5 41zM366 20q100 0 165.5 67t65.5 171t-65.5 171.5t-165.5 67.5t-165.5 -67.5t-65.5 -171.5t65.5 -171t165.5 -67z" />
    <glyph glyph-name="c" unicode="c" horiz-adv-x="557" 
d="M303 517q104 0 176 -69l-13 -14q-69 63 -163 63q-101 0 -166.5 -66.5t-65.5 -171.5t65.5 -172t166.5 -67q108 0 174 75l13 -14q-71 -81 -187 -81q-108 0 -179.5 73t-71.5 186q0 112 71.5 185t179.5 73z" />
    <glyph glyph-name="d" unicode="d" horiz-adv-x="673" 
d="M558 742v-742h-20v152q-29 -71 -90.5 -112.5t-142.5 -41.5q-109 0 -181 73.5t-72 186.5t71.5 187t181.5 74q81 0 142.5 -41.5t90.5 -112.5v377h20zM305 18q101 0 167 68t66 172t-66 172.5t-167 68.5t-167 -68.5t-66 -172.5t66 -172t167 -68z" />
    <glyph glyph-name="e" unicode="e" horiz-adv-x="589" 
d="M301 20q116 0 183 75l14 -14q-75 -81 -197 -81q-108 0 -178.5 73t-70.5 186q0 112 70.5 185t178.5 73q107 0 173.5 -72.5t66.5 -185.5h-469q0 -105 64.5 -172t164.5 -67zM301 497q-94 0 -157.5 -60.5t-70.5 -157.5h448q-7 98 -66 158t-154 60z" />
    <glyph glyph-name="f" unicode="f" horiz-adv-x="295" 
d="M263 722q-53 1 -89.5 -40t-36.5 -102v-73h168v-20h-168v-487h-20v487h-65v20h65v73q0 69 42.5 116t103.5 46q57 -2 102 -37l-12 -16q-41 31 -90 33z" />
    <glyph glyph-name="g" unicode="g" horiz-adv-x="630" 
d="M536 517v-458q0 -115 -67 -184t-179 -68q-121 4 -208 90l14 14q80 -80 194 -84q103 -1 164.5 62.5t61.5 169.5v107q-27 -68 -86.5 -107.5t-136.5 -39.5q-104 0 -172.5 70.5t-68.5 177.5q0 109 68.5 179.5t172.5 70.5q77 0 136.5 -40t86.5 -108v148h20zM293 38
q97 0 160 65t63 164q0 100 -63 165.5t-160 65.5t-159.5 -65.5t-62.5 -165.5q0 -99 62.5 -164t159.5 -65z" />
    <glyph glyph-name="h" unicode="h" horiz-adv-x="650" 
d="M354 517q96 0 149.5 -54t53.5 -150v-313h-20v313q0 87 -48.5 135.5t-134.5 48.5q-103 -2 -161 -66.5t-58 -177.5v-253h-20v742h20v-374q25 70 81 109t138 40z" />
    <glyph glyph-name="i" unicode="i" horiz-adv-x="240" 
d="M120 692q10 0 18 -8t8 -18t-8 -18t-18 -8t-18 8t-8 18t8 18t18 8zM130 0h-20v517h20v-517z" />
    <glyph glyph-name="j" unicode="j" horiz-adv-x="235" 
d="M115 692q11 0 18.5 -8t7.5 -18t-7.5 -18t-18.5 -8t-18.5 8t-7.5 18t7.5 18t18.5 8zM125 517v-548q0 -81 -29.5 -122t-86.5 -40q-56 2 -102 37l12 16q39 -31 90 -33q47 -1 71.5 35t24.5 107v548h20z" />
    <glyph glyph-name="k" unicode="k" horiz-adv-x="538" 
d="M281 302l-146 -148v-154h-20v742h20v-557l329 332h28l-197 -200l227 -317h-24z" />
    <glyph glyph-name="l" unicode="l" horiz-adv-x="250" 
d="M135 0h-20v742h20v-742z" />
    <glyph glyph-name="m" unicode="m" horiz-adv-x="1046" 
d="M755 517q94 0 146 -54t52 -150v-313h-20v313q0 87 -47 135.5t-131 48.5q-101 -2 -157 -66.5t-56 -177.5v-253h-20v313q0 87 -47.5 135.5t-131.5 48.5q-100 -2 -156.5 -66.5t-56.5 -177.5v-253h-20v517h20v-148q24 70 79 108.5t135 39.5q81 0 132 -41.5t63 -116.5
q23 75 78.5 116t137.5 42z" />
    <glyph glyph-name="n" unicode="n" horiz-adv-x="644" 
d="M348 517q96 0 149.5 -54t53.5 -150v-313h-20v313q0 87 -48.5 135.5t-134.5 48.5q-96 -2 -153 -59t-65 -157v-281h-20v517h20v-146q25 69 81 107t137 39z" />
    <glyph glyph-name="o" unicode="o" 
d="M303 517q108 0 179.5 -73t71.5 -185q0 -113 -71.5 -186t-179.5 -73t-179.5 73t-71.5 186q0 112 71.5 185t179.5 73zM303 497q-101 0 -166 -66.5t-65 -171.5t65 -172t166 -67t166 67t65 172t-65 171.5t-166 66.5z" />
    <glyph glyph-name="p" unicode="p" horiz-adv-x="669" 
d="M366 517q109 0 180 -73.5t71 -185.5t-71 -185t-180 -73q-80 0 -141.5 41t-89.5 111v-346h-20v711h20v-152q28 70 89.5 111t141.5 41zM366 20q100 0 165.5 67t65.5 171t-65.5 171.5t-165.5 67.5t-165.5 -67.5t-65.5 -171.5t65.5 -171t165.5 -67z" />
    <glyph glyph-name="q" unicode="q" horiz-adv-x="673" 
d="M558 517v-711h-20v346q-29 -71 -90.5 -112.5t-142.5 -41.5q-109 0 -181 73.5t-72 186.5t71.5 187t181.5 74q81 0 142.5 -41.5t90.5 -112.5v152h20zM305 18q101 0 167 68t66 172t-66 172.5t-167 68.5t-167 -68.5t-66 -172.5t66 -172t167 -68z" />
    <glyph glyph-name="r" unicode="r" horiz-adv-x="338" 
d="M130 517v-141q49 138 198 141v-20q-88 -2 -139.5 -58.5t-58.5 -155.5v-283h-20v517h20z" />
    <glyph glyph-name="s" unicode="s" horiz-adv-x="427" 
d="M222 517q74 0 138 -37l-10 -17q-53 34 -127 34q-64 0 -104.5 -26t-40.5 -76q0 -43 32 -69t77.5 -39t91.5 -27t78 -45t32 -81q0 -66 -50.5 -100t-123.5 -34q-113 0 -185 72l13 15q69 -67 172 -67q65 0 108.5 27.5t45.5 81.5q1 37 -21 62.5t-57 38t-75.5 26t-75.5 27
t-58.5 41.5t-23.5 69q0 61 46.5 92.5t117.5 31.5z" />
    <glyph glyph-name="t" unicode="t" horiz-adv-x="362" 
d="M326 53l12 -16q-46 -35 -102 -37q-54 -1 -82 35.5t-28 106.5v345h-76v20h76v123h20v-123h182v-20h-182v-345q0 -60 23 -91.5t67 -30.5q51 2 90 33z" />
    <glyph glyph-name="u" unicode="u" horiz-adv-x="637" 
d="M527 517v-517h-20v151q-24 -72 -79 -111t-136 -40q-94 0 -147 54t-53 150v313h20v-313q0 -87 47.5 -135.5t132.5 -48.5q101 2 158 66.5t57 177.5v253h20z" />
    <glyph glyph-name="v" unicode="v" horiz-adv-x="456" 
d="M244 0h-22l-212 517h23l200 -494l199 494h24z" />
    <glyph glyph-name="w" unicode="w" horiz-adv-x="818" 
d="M621 0h-22l-184 489l-186 -489h-22l-197 517h24l185 -494l183 494h24l185 -494l184 494h23z" />
    <glyph glyph-name="x" unicode="x" horiz-adv-x="489" 
d="M243 284l173 233h24l-185 -249l199 -268h-25l-187 251l-186 -251h-25l199 268l-184 249h24z" />
    <glyph glyph-name="y" unicode="y" horiz-adv-x="456" 
d="M456 517l-242 -592q-49 -119 -135 -119q-55 0 -92 26l9 17q34 -23 81 -23q79 0 121 106l26 66l-214 519h23l201 -494l198 494h24z" />
    <glyph glyph-name="z" unicode="z" horiz-adv-x="510" 
d="M452 491l-370 -471l377 -1v-20l-397 1v25l370 471l-361 1v20l381 -1v-25z" />
    <glyph glyph-name="braceleft" unicode="{" horiz-adv-x="284" 
d="M148 640v-250q0 -68 -40 -82q40 -14 40 -82v-250q0 -82 108 -82v-20h-5q-63 0 -93 25t-30 77v250q0 72 -55 72h-19v20h19q55 0 55 72v250q0 52 30 77t93 25h5v-20q-108 0 -108 -82z" />
    <glyph glyph-name="bar" unicode="|" horiz-adv-x="220" 
d="M120 -129h-20v953h20v-953z" />
    <glyph glyph-name="braceright" unicode="}" horiz-adv-x="284" 
d="M230 318v-20h-19q-55 0 -55 -72v-250q0 -52 -30 -77t-93 -25h-5v20q108 0 108 82v250q0 68 40 82q-40 14 -40 82v250q0 82 -108 82v20h5q63 0 93 -25t30 -77v-250q0 -72 55 -72h19z" />
    <glyph glyph-name="asciitilde" unicode="~" horiz-adv-x="480" 
d="M153 360q30 0 89.5 -35t85.5 -35q50 0 50 60h20q0 -38 -18.5 -59t-51.5 -21q-35 0 -92.5 35t-82.5 35q-50 0 -50 -60h-20q0 38 18.5 59t51.5 21z" />
    <glyph glyph-name="nbspace" unicode="&#xa0;" horiz-adv-x="300" 
 />
    <glyph glyph-name="exclamdown" unicode="&#xa1;" horiz-adv-x="192" 
d="M96 471q-10 0 -18 7.5t-8 18.5t8 18.5t18 7.5t18 -7.5t8 -18.5t-8 -18.5t-18 -7.5zM86 328h20v-494h-20v494z" />
    <glyph glyph-name="cent" unicode="&#xa2;" horiz-adv-x="557" 
d="M477 95l13 -14q-71 -81 -186 -81v-119h-20v120q-101 7 -166.5 79t-65.5 179t65.5 178.5t166.5 78.5v138h20v-137q103 0 175 -69l-13 -14q-69 63 -162 63v-477q107 0 173 75zM71 259q0 -100 59.5 -166t153.5 -72v475q-94 -6 -153.5 -72t-59.5 -165z" />
    <glyph glyph-name="sterling" unicode="&#xa3;" horiz-adv-x="532" 
d="M482 20v-20h-430v20h94v310h-94v20h94v152q0 95 44.5 146t127.5 51q106 0 174 -98l-14 -14q-63 92 -160 92q-74 0 -113 -45.5t-39 -131.5v-152h191v-20h-191v-310h316z" />
    <glyph glyph-name="currency" unicode="&#xa4;" horiz-adv-x="726" 
d="M646 316q0 -110 -80 -187l108 -109l-14 -14l-109 109q-80 -69 -188 -69q-106 0 -187 70l-110 -110l-14 14l109 110q-78 78 -78 186q0 109 78 189l-109 110l14 14l110 -110q81 70 187 70q108 0 188 -69l109 109l14 -14l-108 -109q80 -80 80 -190zM103 316
q0 -103 76.5 -176.5t183.5 -73.5q109 0 186 73.5t77 176.5q0 104 -77 178.5t-186 74.5q-107 0 -183.5 -74.5t-76.5 -178.5z" />
    <glyph glyph-name="yen" unicode="&#xa5;" 
d="M328 289h195v-20h-208v-120h208v-20h-208v-129h-20v129h-212v20h212v120h-212v20h198l-271 410h24l271 -410l267 410h24z" />
    <glyph glyph-name="brokenbar" unicode="&#xa6;" horiz-adv-x="220" 
d="M120 471h-20v353h20v-353zM120 -129h-20v353h20v-353z" />
    <glyph glyph-name="section" unicode="&#xa7;" horiz-adv-x="429" 
d="M225 694q79 0 139 -39l-12 -15q-49 34 -127 34q-67 0 -106.5 -26.5t-39.5 -75.5q0 -36 23 -60.5t58 -36t75.5 -25t75.5 -27t58 -41.5t23 -68q0 -56 -38 -91.5t-84 -40.5q120 -39 120 -129q0 -61 -49 -97t-126 -36q-115 0 -186 73l14 14q69 -67 170 -67q67 0 112.5 30.5
t45.5 83.5q0 42 -32 68t-78 40t-92.5 28.5t-78.5 45t-32 78.5q0 54 39 85.5t108 36.5q-77 24 -111 56.5t-34 78.5q0 57 45.5 90t119.5 33zM224 417q-66 0 -106.5 -26.5t-40.5 -69.5q0 -49 49.5 -86.5t112.5 -37.5q56 0 95 32t39 81q0 48 -40 77.5t-109 29.5z" />
    <glyph glyph-name="dieresis" unicode="&#xa8;" horiz-adv-x="350" 
d="M100 692q10 0 18 -8t8 -18t-8 -18t-18 -8t-18 8t-8 18t8 18t18 8zM250 692q10 0 18 -8t8 -18t-8 -18t-18 -8t-18 8t-8 18t8 18t18 8z" />
    <glyph glyph-name="copyright" unicode="&#xa9;" horiz-adv-x="777" 
d="M389 689q142 0 240 -99.5t98 -239.5t-99 -240.5t-241 -100.5q-141 0 -239 99.5t-98 239.5t98.5 240.5t240.5 100.5zM389 669q-135 0 -227 -94.5t-92 -226.5t91.5 -225.5t225.5 -93.5q135 0 227.5 94.5t92.5 226.5q0 133 -92 226t-226 93zM393 531q72 0 128 -49l-13 -14
q-49 43 -115 43q-70 0 -119 -47.5t-49 -114.5q0 -68 49 -115.5t119 -47.5q66 0 115 43l13 -13q-55 -50 -129 -50q-77 0 -132 53.5t-55 129.5q0 75 55 128.5t133 53.5z" />
    <glyph glyph-name="ordfeminine" unicode="&#xaa;" horiz-adv-x="372" 
d="M283 458v66q-40 -66 -130 -66q-46 0 -74 24.5t-28 62.5q0 37 31.5 58t85.5 21h114v33q-2 84 -97 84q-53 0 -109 -40l-9 16q61 43 121 43q54 0 84 -27.5t30 -74.5l1 -200h-20zM157 475q91 0 126 78l-1 55h-112q-99 0 -99 -62q0 -32 23.5 -51.5t62.5 -19.5z" />
    <glyph glyph-name="guillemotleft" unicode="&#xab;" horiz-adv-x="381" 
d="M83 247l108 -153h-24l-109 153l109 156h24zM196 247l108 -153h-24l-109 153l109 156h24z" />
    <glyph glyph-name="logicalnot" unicode="&#xac;" horiz-adv-x="534" 
d="M440 360v-200h-20v180h-380v20h400z" />
    <glyph glyph-name="softhyphen" unicode="&#xad;" horiz-adv-x="357" 
d="M287 290h-217v20h217v-20z" />
    <glyph glyph-name="registered" unicode="&#xae;" horiz-adv-x="777" 
d="M389 689q142 0 240 -99.5t98 -239.5t-99 -240.5t-241 -100.5q-141 0 -239 99.5t-98 239.5t98.5 240.5t240.5 100.5zM387 29q135 0 227.5 94.5t92.5 226.5q0 133 -92 226t-226 93q-135 0 -227 -94.5t-92 -226.5t91.5 -225.5t225.5 -93.5zM537 421q0 -98 -93 -121l95 -132
h-25l-91 128q-20 -2 -31 -2h-111v-126h-20v375h131q70 0 107.5 -31.5t37.5 -90.5zM281 314h111q59 0 92 28t33 79q0 50 -32.5 76t-92.5 26h-111v-209z" />
    <glyph glyph-name="macron" unicode="&#xaf;" horiz-adv-x="350" 
d="M284 657h-217v20h217v-20z" />
    <glyph glyph-name="degree" unicode="&#xb0;" horiz-adv-x="300" 
d="M188 796q46 0 79.5 -32.5t33.5 -76.5t-33.5 -76t-79.5 -32q-45 0 -78.5 32.5t-33.5 75.5q0 44 33.5 76.5t78.5 32.5zM188 776q-37 0 -64.5 -26.5t-27.5 -62.5t27 -62t65 -26t65.5 26t27.5 62t-27.5 62.5t-65.5 26.5z" />
    <glyph glyph-name="plusminus" unicode="&#xb1;" horiz-adv-x="480" 
d="M440 379v-20h-190v-190h-20v190h-190v20h190v190h20v-190h190zM40 75h400v-20h-400v20z" />
    <glyph glyph-name="twosuperior" unicode="&#xb2;" horiz-adv-x="374" 
d="M173 699q55 0 87.5 -26t32.5 -70q0 -58 -73 -129l-151 -162h254v-19h-278v21l161 172q66 66 66 116q0 36 -27 57t-74 21q-65 0 -115 -50l-12 15q56 54 129 54z" />
    <glyph glyph-name="threesuperior" unicode="&#xb3;" horiz-adv-x="338" 
d="M123 523h25q62 -1 99.5 -29t37.5 -78q0 -55 -38 -89t-103 -34q-69 0 -122 35l11 17q47 -34 110 -34q56 0 88.5 28.5t32.5 74.5q0 45 -32 68.5t-90 23.5h-45v15l142 159h-200v18h226v-15z" />
    <glyph glyph-name="acute" unicode="&#xb4;" horiz-adv-x="350" 
d="M256 729l-129 -105h-32l142 115z" />
    <glyph glyph-name="mu" unicode="&#xb5;" horiz-adv-x="659" 
d="M549 517v-517h-20v151q-24 -72 -79 -111t-136 -40q-132 0 -179 100v-294h-20v373q-1 8 -1 25v313h21v-337q7 -76 53.5 -118t125.5 -42q101 2 158 66.5t57 177.5v253h20z" />
    <glyph glyph-name="paragraph" unicode="&#xb6;" horiz-adv-x="557" 
d="M429 -112h-20v834h-182v-834h-20v531q-28 -2 -38 -2q-46 0 -79.5 15.5t-50.5 41t-24.5 51t-7.5 51.5q0 70 48.5 118t147.5 48h226v-854z" />
    <glyph glyph-name="periodcentered" unicode="&#xb7;" horiz-adv-x="170" 
d="M85 292q11 0 18.5 -8t7.5 -18t-7.5 -18t-18.5 -8t-18.5 8t-7.5 18t7.5 18t18.5 8z" />
    <glyph glyph-name="cedilla" unicode="&#xb8;" horiz-adv-x="350" 
d="M200 4l-22 -53q31 0 52 -19.5t22 -49.5q2 -35 -22 -58.5t-62 -23.5q-43 0 -70 20l8 19q26 -19 62 -19q29 0 47 17.5t17 44.5q-1 22 -16 36.5t-37 14.5h-29l30 71h20z" />
    <glyph glyph-name="onesuperior" unicode="&#xb9;" horiz-adv-x="241" 
d="M116 293v387h-89v19h110v-406h-21z" />
    <glyph glyph-name="ordmasculine" unicode="&#xba;" horiz-adv-x="396" 
d="M198 760q66 0 109.5 -42.5t43.5 -108.5t-43.5 -108.5t-109.5 -42.5q-67 0 -110 42t-43 109q0 66 43 108.5t110 42.5zM198 741q-58 0 -95.5 -37t-37.5 -95q0 -59 37.5 -96t95.5 -37t95 37t37 96q0 58 -37 95t-95 37z" />
    <glyph glyph-name="guillemotright" unicode="&#xbb;" horiz-adv-x="381" 
d="M185 250l-108 153h24l109 -153l-109 -156h-24zM298 250l-108 153h24l109 -153l-109 -156h-24z" />
    <glyph glyph-name="onequarter" unicode="&#xbc;" horiz-adv-x="712" 
d="M21 0l538 699h26l-538 -699h-26zM116 293v387h-89v19h110v-406h-21zM588 135v126h21v-126h66v-18h-66v-117h-21v117h-202v21l158 268h22l-159 -271h181z" />
    <glyph glyph-name="onehalf" unicode="&#xbd;" horiz-adv-x="735" 
d="M21 0l538 699h26l-538 -699h-26zM116 293v387h-89v19h110v-406h-21zM534 406q55 0 87.5 -26t32.5 -70q0 -58 -73 -129l-151 -162h254v-19h-278v21l161 172q66 66 66 116q0 36 -27 57t-74 21q-65 0 -115 -50l-12 15q56 54 129 54z" />
    <glyph glyph-name="threequarters" unicode="&#xbe;" horiz-adv-x="779" 
d="M88 0l538 699h26l-538 -699h-26zM123 523h25q62 -1 99.5 -29t37.5 -78q0 -55 -38 -89t-103 -34q-69 0 -122 35l11 17q47 -34 110 -34q56 0 88.5 28.5t32.5 74.5q0 45 -32 68.5t-90 23.5h-45v15l142 159h-200v18h226v-15zM655 135v126h21v-126h66v-18h-66v-117h-21v117
h-202v21l158 268h22l-159 -271h181z" />
    <glyph glyph-name="questiondown" unicode="&#xbf;" horiz-adv-x="395" 
d="M217 471q-11 0 -18.5 7.5t-7.5 18.5t7.5 18.5t18.5 7.5t18.5 -7.5t7.5 -18.5t-7.5 -18.5t-18.5 -7.5zM367 -18l20 -2q-5 -68 -52 -105.5t-122 -37.5q-77 0 -125 38.5t-48 112.5q0 47 17 82.5t41 58.5t48 45t41 56.5t17 79.5h20q0 -48 -17 -84t-41 -58.5l-48 -45
t-41 -56.5t-17 -79q0 -64 42 -97t112 -33q68 0 108.5 32t44.5 93z" />
    <glyph glyph-name="Agrave" unicode="&#xc0;" horiz-adv-x="686" 
d="M343 806l-129 105l19 10l142 -115h-32zM555 213h-424l-97 -213h-24l320 699h22l324 -699h-23zM546 233l-205 443l-201 -443h406z" />
    <glyph glyph-name="Aacute" unicode="&#xc1;" horiz-adv-x="686" 
d="M343 806h-32l142 115l19 -10zM555 213h-424l-97 -213h-24l320 699h22l324 -699h-23zM546 233l-205 443l-201 -443h406z" />
    <glyph glyph-name="Acircumflex" unicode="&#xc2;" horiz-adv-x="686" 
d="M256 806h-27l99 110h30l99 -110h-27l-87 96zM555 213h-424l-97 -213h-24l320 699h22l324 -699h-23zM546 233l-205 443l-201 -443h406z" />
    <glyph glyph-name="Atilde" unicode="&#xc3;" horiz-adv-x="686" 
d="M281 882q-50 0 -50 -60h-20q0 38 18.5 59t51.5 21q25 0 64.5 -35t60.5 -35q50 0 50 60h20q0 -38 -18.5 -59t-51.5 -21q-24 0 -46 17.5t-41.5 35t-37.5 17.5zM555 213h-424l-97 -213h-24l320 699h22l324 -699h-23zM546 233l-205 443l-201 -443h406z" />
    <glyph glyph-name="Adieresis" unicode="&#xc4;" horiz-adv-x="686" 
d="M268 822q-10 0 -18 8t-8 18t8 18t18 8t18 -8t8 -18t-8 -18t-18 -8zM418 822q-10 0 -18 8t-8 18t8 18t18 8t18 -8t8 -18t-8 -18t-18 -8zM555 213h-424l-97 -213h-24l320 699h22l324 -699h-23zM546 233l-205 443l-201 -443h406z" />
    <glyph glyph-name="Aring" unicode="&#xc5;" horiz-adv-x="686" 
d="M555 213h-424l-97 -213h-24l312 681q-39 8 -65 38t-26 68q0 44 33 76.5t79 32.5t79.5 -32.5t33.5 -76.5q0 -39 -27.5 -69.5t-67.5 -37.5l315 -680h-23zM251 787q0 -36 27 -62t65 -26t65.5 26t27.5 62t-27.5 62.5t-65.5 26.5q-37 0 -64.5 -26.5t-27.5 -62.5zM546 233
l-205 443l-201 -443h406z" />
    <glyph glyph-name="AE" unicode="&#xc6;" horiz-adv-x="987" 
d="M922 20v-20h-451v223h-303l-134 -223h-24l421 699h477v-20h-417v-309h371v-20h-371v-330h431zM471 243v436h-29l-262 -436h291z" />
    <glyph glyph-name="Ccedilla" unicode="&#xc7;" horiz-adv-x="705" 
d="M420 0l-20 -49q31 0 52 -19.5t22 -49.5q2 -35 -22 -58.5t-62 -23.5q-43 0 -70 20l8 19q26 -19 62 -19q29 0 47 17.5t17 44.5q-1 22 -16 36.5t-37 14.5h-29l28 67q-145 4 -247.5 106t-102.5 244q0 144 105.5 246.5t253.5 102.5q137 0 240 -90l-13 -13q-95 84 -227 84
q-140 0 -240 -97t-100 -233q0 -137 100 -234t240 -97q131 0 227 85l14 -13q-98 -86 -230 -91z" />
    <glyph glyph-name="Egrave" unicode="&#xc8;" horiz-adv-x="644" 
d="M383 806h-32l-129 105l19 10zM565 679h-417v-309h371v-20h-371v-330h431v-20h-451v699h437v-20z" />
    <glyph glyph-name="Eacute" unicode="&#xc9;" horiz-adv-x="644" 
d="M480 911l-129 -105h-32l142 115zM565 679h-417v-309h371v-20h-371v-330h431v-20h-451v699h437v-20z" />
    <glyph glyph-name="Ecircumflex" unicode="&#xca;" horiz-adv-x="644" 
d="M465 806h-27l-87 96l-87 -96h-27l99 110h30zM565 679h-417v-309h371v-20h-371v-330h431v-20h-451v699h437v-20z" />
    <glyph glyph-name="Edieresis" unicode="&#xcb;" horiz-adv-x="644" 
d="M276 874q10 0 18 -8t8 -18t-8 -18t-18 -8t-18 8t-8 18t8 18t18 8zM426 874q10 0 18 -8t8 -18t-8 -18t-18 -8t-18 8t-8 18t8 18t18 8zM565 679h-417v-309h371v-20h-371v-330h431v-20h-451v699h437v-20z" />
    <glyph glyph-name="Igrave" unicode="&#xcc;" horiz-adv-x="276" 
d="M170 806h-32l-129 105l19 10zM148 0h-20v699h20v-699z" />
    <glyph glyph-name="Iacute" unicode="&#xcd;" horiz-adv-x="276" 
d="M267 911l-129 -105h-32l142 115zM148 0h-20v699h20v-699z" />
    <glyph glyph-name="Icircumflex" unicode="&#xce;" horiz-adv-x="276" 
d="M252 806h-27l-87 96l-87 -96h-27l99 110h30zM148 0h-20v699h20v-699z" />
    <glyph glyph-name="Idieresis" unicode="&#xcf;" horiz-adv-x="276" 
d="M63 874q11 0 18.5 -8t7.5 -18t-7.5 -18t-18.5 -8t-18.5 8t-7.5 18t7.5 18t18.5 8zM213 874q11 0 18.5 -8t7.5 -18t-7.5 -18t-18.5 -8t-18.5 8t-7.5 18t7.5 18t18.5 8zM148 0h-20v699h20v-699z" />
    <glyph glyph-name="Eth" unicode="&#xd0;" horiz-adv-x="811" 
d="M128 699h275q148 0 253 -102.5t105 -247.5q0 -144 -105 -246.5t-253 -102.5h-275v342h-128v20h128v337zM148 20h255q139 0 238.5 96.5t99.5 232.5t-99 233t-239 97h-255v-317h262v-20h-262v-322z" />
    <glyph glyph-name="Ntilde" unicode="&#xd1;" horiz-adv-x="799" 
d="M338 902q25 0 64.5 -35t60.5 -35q50 0 50 60h20q0 -38 -18.5 -59t-51.5 -21q-24 0 -46 17.5t-41.5 35t-37.5 17.5q-50 0 -50 -60h-20q0 38 18.5 59t51.5 21zM671 0h-30l-493 679v-679h-20v699h30l493 -679v679h20v-699z" />
    <glyph glyph-name="Ograve" unicode="&#xd2;" horiz-adv-x="818" 
d="M441 806h-32l-129 105l19 10zM409 699q148 0 253.5 -102.5t105.5 -246.5t-105.5 -247t-253.5 -103t-253.5 103t-105.5 247t105.5 246.5t253.5 102.5zM409 679q-140 0 -239.5 -96.5t-99.5 -232.5t100 -233t239 -97t239 97t100 233t-99.5 232.5t-239.5 96.5z" />
    <glyph glyph-name="Oacute" unicode="&#xd3;" horiz-adv-x="818" 
d="M538 911l-129 -105h-32l142 115zM409 699q148 0 253.5 -102.5t105.5 -246.5t-105.5 -247t-253.5 -103t-253.5 103t-105.5 247t105.5 246.5t253.5 102.5zM409 679q-140 0 -239.5 -96.5t-99.5 -232.5t100 -233t239 -97t239 97t100 233t-99.5 232.5t-239.5 96.5z" />
    <glyph glyph-name="Ocircumflex" unicode="&#xd4;" horiz-adv-x="818" 
d="M523 806h-27l-87 96l-87 -96h-27l99 110h30zM409 699q148 0 253.5 -102.5t105.5 -246.5t-105.5 -247t-253.5 -103t-253.5 103t-105.5 247t105.5 246.5t253.5 102.5zM409 679q-140 0 -239.5 -96.5t-99.5 -232.5t100 -233t239 -97t239 97t100 233t-99.5 232.5t-239.5 96.5z
" />
    <glyph glyph-name="Otilde" unicode="&#xd5;" horiz-adv-x="818" 
d="M347 902q25 0 64.5 -35t60.5 -35q50 0 50 60h20q0 -38 -18.5 -59t-51.5 -21q-24 0 -46 17.5t-41.5 35t-37.5 17.5q-50 0 -50 -60h-20q0 38 18.5 59t51.5 21zM409 699q148 0 253.5 -102.5t105.5 -246.5t-105.5 -247t-253.5 -103t-253.5 103t-105.5 247t105.5 246.5
t253.5 102.5zM409 679q-140 0 -239.5 -96.5t-99.5 -232.5t100 -233t239 -97t239 97t100 233t-99.5 232.5t-239.5 96.5z" />
    <glyph glyph-name="Odieresis" unicode="&#xd6;" horiz-adv-x="818" 
d="M334 874q10 0 18 -8t8 -18t-8 -18t-18 -8t-18 8t-8 18t8 18t18 8zM484 874q10 0 18 -8t8 -18t-8 -18t-18 -8t-18 8t-8 18t8 18t18 8zM409 699q148 0 253.5 -102.5t105.5 -246.5t-105.5 -247t-253.5 -103t-253.5 103t-105.5 247t105.5 246.5t253.5 102.5zM409 679
q-140 0 -239.5 -96.5t-99.5 -232.5t100 -233t239 -97t239 97t100 233t-99.5 232.5t-239.5 96.5z" />
    <glyph glyph-name="multiply" unicode="&#xd7;" horiz-adv-x="480" 
d="M254 320l134 -134l-14 -14l-134 134l-134 -134l-14 14l134 134l-134 134l14 14l134 -134l134 134l14 -14z" />
    <glyph glyph-name="Oslash" unicode="&#xd8;" horiz-adv-x="818" 
d="M559 816l-43 -133q111 -34 181.5 -125.5t70.5 -207.5q0 -144 -105.5 -247t-253.5 -103q-53 0 -106 16l-50 -156h-21l52 162q-103 38 -168.5 128t-65.5 200q0 144 105.5 246.5t253.5 102.5q44 0 88 -11l41 128h21zM70 350q0 -104 61.5 -188t158.5 -121l201 628
q-37 10 -82 10q-140 0 -239.5 -96.5t-99.5 -232.5zM409 20q139 0 239 97t100 233q0 109 -67 195.5t-171 118.5l-201 -629q48 -15 100 -15z" />
    <glyph glyph-name="Ugrave" unicode="&#xd9;" horiz-adv-x="774" 
d="M419 806h-32l-129 105l19 10zM664 699v-415q0 -136 -72.5 -210t-204.5 -74t-204.5 74t-72.5 210v415h20v-415q0 -126 67.5 -195t189.5 -69t189.5 69t67.5 195v415h20z" />
    <glyph glyph-name="Uacute" unicode="&#xda;" horiz-adv-x="774" 
d="M516 911l-129 -105h-32l142 115zM664 699v-415q0 -136 -72.5 -210t-204.5 -74t-204.5 74t-72.5 210v415h20v-415q0 -126 67.5 -195t189.5 -69t189.5 69t67.5 195v415h20z" />
    <glyph glyph-name="Ucircumflex" unicode="&#xdb;" horiz-adv-x="774" 
d="M501 806h-27l-87 96l-87 -96h-27l99 110h30zM664 699v-415q0 -136 -72.5 -210t-204.5 -74t-204.5 74t-72.5 210v415h20v-415q0 -126 67.5 -195t189.5 -69t189.5 69t67.5 195v415h20z" />
    <glyph glyph-name="Udieresis" unicode="&#xdc;" horiz-adv-x="774" 
d="M312 874q10 0 18 -8t8 -18t-8 -18t-18 -8t-18 8t-8 18t8 18t18 8zM462 874q10 0 18 -8t8 -18t-8 -18t-18 -8t-18 8t-8 18t8 18t18 8zM664 699v-415q0 -136 -72.5 -210t-204.5 -74t-204.5 74t-72.5 210v415h20v-415q0 -126 67.5 -195t189.5 -69t189.5 69t67.5 195v415h20z
" />
    <glyph glyph-name="Yacute" unicode="&#xdd;" 
d="M303 806h-32l142 115l19 -10zM315 269v-269h-20v269l-285 430h24l271 -410l267 410h24z" />
    <glyph glyph-name="Thorn" unicode="&#xde;" horiz-adv-x="662" 
d="M148 587h187q297 0 297 -220q0 -225 -297 -225h-187v-142h-20v699h20v-112zM148 162h187q277 0 277 205q0 200 -277 200h-187v-405z" />
    <glyph glyph-name="germandbls" unicode="&#xdf;" horiz-adv-x="640" 
d="M331 742q92 0 146.5 -49.5t54.5 -132.5q0 -70 -40.5 -120t-108.5 -63q84 -10 134.5 -59t50.5 -121q0 -90 -64.5 -143.5t-173.5 -53.5h-55v20h55q99 0 158.5 48.5t59.5 128.5q0 77 -62 122.5t-165 45.5h-5v20q89 0 142.5 47.5t53.5 127.5q0 74 -49.5 118t-131.5 44
q-91 0 -146 -61.5t-55 -164.5v-496h-20v496q0 112 60.5 179t160.5 67z" />
    <glyph glyph-name="agrave" unicode="&#xe0;" horiz-adv-x="562" 
d="M275 624l-129 105l19 10l142 -115h-32zM449 0l-1 117q-66 -117 -217 -117q-74 0 -121 42t-47 107q0 63 51.5 98t140.5 35h192v63q-1 73 -42.5 112.5t-121.5 39.5q-89 0 -181 -72l-12 16q96 76 193 76q88 0 135.5 -46t48.5 -126l2 -345h-20zM232 20q159 0 216 142l-1 100
h-192q-82 0 -127 -29.5t-45 -83.5q0 -58 40.5 -93.5t108.5 -35.5z" />
    <glyph glyph-name="aacute" unicode="&#xe1;" horiz-adv-x="562" 
d="M275 624h-32l142 115l19 -10zM449 0l-1 117q-66 -117 -217 -117q-74 0 -121 42t-47 107q0 63 51.5 98t140.5 35h192v63q-1 73 -42.5 112.5t-121.5 39.5q-89 0 -181 -72l-12 16q96 76 193 76q88 0 135.5 -46t48.5 -126l2 -345h-20zM232 20q159 0 216 142l-1 100h-192
q-82 0 -127 -29.5t-45 -83.5q0 -58 40.5 -93.5t108.5 -35.5z" />
    <glyph glyph-name="acircumflex" unicode="&#xe2;" horiz-adv-x="562" 
d="M188 624h-27l99 110h30l99 -110h-27l-87 96zM449 0l-1 117q-66 -117 -217 -117q-74 0 -121 42t-47 107q0 63 51.5 98t140.5 35h192v63q-1 73 -42.5 112.5t-121.5 39.5q-89 0 -181 -72l-12 16q96 76 193 76q88 0 135.5 -46t48.5 -126l2 -345h-20zM232 20q159 0 216 142
l-1 100h-192q-82 0 -127 -29.5t-45 -83.5q0 -58 40.5 -93.5t108.5 -35.5z" />
    <glyph glyph-name="atilde" unicode="&#xe3;" horiz-adv-x="562" 
d="M213 700q-50 0 -50 -60h-20q0 38 18.5 59t51.5 21q25 0 64.5 -35t60.5 -35q50 0 50 60h20q0 -38 -18.5 -59t-51.5 -21q-24 0 -46 17.5t-41.5 35t-37.5 17.5zM449 0l-1 117q-66 -117 -217 -117q-74 0 -121 42t-47 107q0 63 51.5 98t140.5 35h192v63q-1 73 -42.5 112.5
t-121.5 39.5q-89 0 -181 -72l-12 16q96 76 193 76q88 0 135.5 -46t48.5 -126l2 -345h-20zM232 20q159 0 216 142l-1 100h-192q-82 0 -127 -29.5t-45 -83.5q0 -58 40.5 -93.5t108.5 -35.5z" />
    <glyph glyph-name="adieresis" unicode="&#xe4;" horiz-adv-x="562" 
d="M200 640q-10 0 -18 8t-8 18t8 18t18 8t18 -8t8 -18t-8 -18t-18 -8zM350 640q-10 0 -18 8t-8 18t8 18t18 8t18 -8t8 -18t-8 -18t-18 -8zM449 0l-1 117q-66 -117 -217 -117q-74 0 -121 42t-47 107q0 63 51.5 98t140.5 35h192v63q-1 73 -42.5 112.5t-121.5 39.5
q-89 0 -181 -72l-12 16q96 76 193 76q88 0 135.5 -46t48.5 -126l2 -345h-20zM232 20q159 0 216 142l-1 100h-192q-82 0 -127 -29.5t-45 -83.5q0 -58 40.5 -93.5t108.5 -35.5z" />
    <glyph glyph-name="aring" unicode="&#xe5;" horiz-adv-x="562" 
d="M275 559q-46 0 -79 32t-33 76t33 76.5t79 32.5t79.5 -32.5t33.5 -76.5t-33.5 -76t-79.5 -32zM275 756q-37 0 -64.5 -26.5t-27.5 -62.5t27 -62t65 -26t65.5 26t27.5 62t-27.5 62.5t-65.5 26.5zM449 0l-1 117q-66 -117 -217 -117q-74 0 -121 42t-47 107q0 63 51.5 98
t140.5 35h192v63q-1 73 -42.5 112.5t-121.5 39.5q-89 0 -181 -72l-12 16q96 76 193 76q88 0 135.5 -46t48.5 -126l2 -345h-20zM232 20q159 0 216 142l-1 100h-192q-82 0 -127 -29.5t-45 -83.5q0 -58 40.5 -93.5t108.5 -35.5z" />
    <glyph glyph-name="ae" unicode="&#xe6;" horiz-adv-x="988" 
d="M700 20q114 0 183 75l14 -14q-76 -81 -197 -81q-80 0 -142 42t-89 113q-64 -155 -237 -155q-75 0 -122 42t-47 107q0 63 52 98t141 35h193l-1 63q-1 72 -42.5 112t-122.5 40q-89 0 -182 -72l-12 16q97 76 194 76q84 0 131.5 -42t52.5 -116q27 73 89.5 115.5t143.5 42.5
q107 0 173.5 -72.5t66.5 -185.5h-470q0 -105 65 -172t165 -67zM700 497q-95 0 -158.5 -60.5t-70.5 -157.5h449q-7 98 -66.5 158t-153.5 60zM232 20q82 0 138.5 38t89.5 126q-10 33 -10 75v3h-194q-83 0 -128 -29.5t-45 -83.5q0 -57 41 -93t108 -36z" />
    <glyph glyph-name="ccedilla" unicode="&#xe7;" horiz-adv-x="557" 
d="M477 95l13 -14q-67 -76 -178 -81l-20 -49q31 0 52 -19.5t22 -49.5q2 -35 -22 -58.5t-62 -23.5q-43 0 -70 20l8 19q26 -19 62 -19q29 0 47 17.5t17 44.5q-1 22 -16 36.5t-37 14.5h-29l28 67q-104 4 -172 76.5t-68 182.5q0 112 71.5 185t179.5 73q104 0 176 -69l-13 -14
q-69 63 -163 63q-101 0 -166.5 -66.5t-65.5 -171.5t65.5 -172t166.5 -67q108 0 174 75z" />
    <glyph glyph-name="egrave" unicode="&#xe8;" horiz-adv-x="589" 
d="M295 624l-129 105l19 10l142 -115h-32zM301 20q116 0 183 75l14 -14q-75 -81 -197 -81q-108 0 -178.5 73t-70.5 186q0 112 70.5 185t178.5 73q107 0 173.5 -72.5t66.5 -185.5h-469q0 -105 64.5 -172t164.5 -67zM301 497q-94 0 -157.5 -60.5t-70.5 -157.5h448
q-7 98 -66 158t-154 60z" />
    <glyph glyph-name="eacute" unicode="&#xe9;" horiz-adv-x="589" 
d="M295 624h-32l142 115l19 -10zM301 20q116 0 183 75l14 -14q-75 -81 -197 -81q-108 0 -178.5 73t-70.5 186q0 112 70.5 185t178.5 73q107 0 173.5 -72.5t66.5 -185.5h-469q0 -105 64.5 -172t164.5 -67zM301 497q-94 0 -157.5 -60.5t-70.5 -157.5h448q-7 98 -66 158
t-154 60z" />
    <glyph glyph-name="ecircumflex" unicode="&#xea;" horiz-adv-x="589" 
d="M208 624h-27l99 110h30l99 -110h-27l-87 96zM301 20q116 0 183 75l14 -14q-75 -81 -197 -81q-108 0 -178.5 73t-70.5 186q0 112 70.5 185t178.5 73q107 0 173.5 -72.5t66.5 -185.5h-469q0 -105 64.5 -172t164.5 -67zM301 497q-94 0 -157.5 -60.5t-70.5 -157.5h448
q-7 98 -66 158t-154 60z" />
    <glyph glyph-name="edieresis" unicode="&#xeb;" horiz-adv-x="589" 
d="M220 640q-10 0 -18 8t-8 18t8 18t18 8t18 -8t8 -18t-8 -18t-18 -8zM370 640q-10 0 -18 8t-8 18t8 18t18 8t18 -8t8 -18t-8 -18t-18 -8zM301 20q116 0 183 75l14 -14q-75 -81 -197 -81q-108 0 -178.5 73t-70.5 186q0 112 70.5 185t178.5 73q107 0 173.5 -72.5t66.5 -185.5
h-469q0 -105 64.5 -172t164.5 -67zM301 497q-94 0 -157.5 -60.5t-70.5 -157.5h448q-7 98 -66 158t-154 60z" />
    <glyph glyph-name="igrave" unicode="&#xec;" horiz-adv-x="240" 
d="M152 624h-32l-129 105l19 10zM130 0h-20v517h20v-517z" />
    <glyph glyph-name="iacute" unicode="&#xed;" horiz-adv-x="240" 
d="M249 729l-129 -105h-32l142 115zM130 0h-20v517h20v-517z" />
    <glyph glyph-name="icircumflex" unicode="&#xee;" horiz-adv-x="240" 
d="M234 624h-27l-87 96l-87 -96h-27l99 110h30zM130 0h-20v517h20v-517z" />
    <glyph glyph-name="idieresis" unicode="&#xef;" horiz-adv-x="240" 
d="M45 692q11 0 18.5 -8t7.5 -18t-7.5 -18t-18.5 -8t-18.5 8t-7.5 18t7.5 18t18.5 8zM195 692q11 0 18.5 -8t7.5 -18t-7.5 -18t-18.5 -8t-18.5 8t-7.5 18t7.5 18t18.5 8zM130 0h-20v517h20v-517z" />
    <glyph glyph-name="eth" unicode="&#xf0;" horiz-adv-x="566" 
d="M427 657l-105 -30q92 -88 143 -192.5t51 -207.5q0 -104 -64 -165.5t-171 -61.5q-101 0 -161 60.5t-60 161.5q0 98 62 157t165 59q70 0 126 -33.5t80 -89.5q-45 169 -194 305l-134 -38l-5 19l121 35q-57 51 -125 88l12 18q78 -45 136 -99l118 34zM286 20q96 0 153 53.5
t57 142.5q0 92 -57 147t-152 55q-94 0 -150.5 -52.5t-56.5 -141.5q0 -93 56 -148.5t150 -55.5z" />
    <glyph glyph-name="ntilde" unicode="&#xf1;" horiz-adv-x="644" 
d="M270 700q-50 0 -50 -60h-20q0 38 18.5 59t51.5 21q25 0 64.5 -35t60.5 -35q50 0 50 60h20q0 -38 -18.5 -59t-51.5 -21q-24 0 -46 17.5t-41.5 35t-37.5 17.5zM348 517q96 0 149.5 -54t53.5 -150v-313h-20v313q0 87 -48.5 135.5t-134.5 48.5q-96 -2 -153 -59t-65 -157v-281
h-20v517h20v-146q25 69 81 107t137 39z" />
    <glyph glyph-name="ograve" unicode="&#xf2;" 
d="M335 624h-32l-129 105l19 10zM303 517q108 0 179.5 -73t71.5 -185q0 -113 -71.5 -186t-179.5 -73t-179.5 73t-71.5 186q0 112 71.5 185t179.5 73zM303 497q-101 0 -166 -66.5t-65 -171.5t65 -172t166 -67t166 67t65 172t-65 171.5t-166 66.5z" />
    <glyph glyph-name="oacute" unicode="&#xf3;" 
d="M432 729l-129 -105h-32l142 115zM303 517q108 0 179.5 -73t71.5 -185q0 -113 -71.5 -186t-179.5 -73t-179.5 73t-71.5 186q0 112 71.5 185t179.5 73zM303 497q-101 0 -166 -66.5t-65 -171.5t65 -172t166 -67t166 67t65 172t-65 171.5t-166 66.5z" />
    <glyph glyph-name="ocircumflex" unicode="&#xf4;" 
d="M417 624h-27l-87 96l-87 -96h-27l99 110h30zM303 517q108 0 179.5 -73t71.5 -185q0 -113 -71.5 -186t-179.5 -73t-179.5 73t-71.5 186q0 112 71.5 185t179.5 73zM303 497q-101 0 -166 -66.5t-65 -171.5t65 -172t166 -67t166 67t65 172t-65 171.5t-166 66.5z" />
    <glyph glyph-name="otilde" unicode="&#xf5;" 
d="M241 720q25 0 64.5 -35t60.5 -35q50 0 50 60h20q0 -38 -18.5 -59t-51.5 -21q-24 0 -46 17.5t-41.5 35t-37.5 17.5q-50 0 -50 -60h-20q0 38 18.5 59t51.5 21zM303 517q108 0 179.5 -73t71.5 -185q0 -113 -71.5 -186t-179.5 -73t-179.5 73t-71.5 186q0 112 71.5 185
t179.5 73zM303 497q-101 0 -166 -66.5t-65 -171.5t65 -172t166 -67t166 67t65 172t-65 171.5t-166 66.5z" />
    <glyph glyph-name="odieresis" unicode="&#xf6;" 
d="M228 692q10 0 18 -8t8 -18t-8 -18t-18 -8t-18 8t-8 18t8 18t18 8zM378 692q10 0 18 -8t8 -18t-8 -18t-18 -8t-18 8t-8 18t8 18t18 8zM303 517q108 0 179.5 -73t71.5 -185q0 -113 -71.5 -186t-179.5 -73t-179.5 73t-71.5 186q0 112 71.5 185t179.5 73zM303 497
q-101 0 -166 -66.5t-65 -171.5t65 -172t166 -67t166 67t65 172t-65 171.5t-166 66.5z" />
    <glyph glyph-name="divide" unicode="&#xf7;" horiz-adv-x="480" 
d="M245 521q11 0 18.5 -7.5t7.5 -18.5t-7.5 -18.5t-18.5 -7.5t-18.5 7.5t-7.5 18.5t7.5 18.5t18.5 7.5zM440 310h-400v20h400v-20zM245 171q11 0 18.5 -7.5t7.5 -18.5t-7.5 -18.5t-18.5 -7.5t-18.5 7.5t-7.5 18.5t7.5 18.5t18.5 7.5z" />
    <glyph glyph-name="oslash" unicode="&#xf8;" 
d="M439 653l-48 -151q74 -26 118.5 -91t44.5 -152q0 -113 -71.5 -186t-179.5 -73q-37 0 -69 9l-52 -162h-21l54 168q-74 26 -118.5 91t-44.5 153q0 112 71.5 185t179.5 73q36 0 69 -9l46 145h21zM72 259q0 -82 40.5 -141.5t108.5 -83.5l145 455q-32 8 -63 8
q-101 0 -166 -66.5t-65 -171.5zM303 20q101 0 166 67t65 172q0 81 -40.5 141t-108.5 84l-145 -456q32 -8 63 -8z" />
    <glyph glyph-name="ugrave" unicode="&#xf9;" horiz-adv-x="637" 
d="M316 624l-129 105l19 10l142 -115h-32zM527 517v-517h-20v151q-24 -72 -79 -111t-136 -40q-94 0 -147 54t-53 150v313h20v-313q0 -87 47.5 -135.5t132.5 -48.5q101 2 158 66.5t57 177.5v253h20z" />
    <glyph glyph-name="uacute" unicode="&#xfa;" horiz-adv-x="637" 
d="M316 624h-32l142 115l19 -10zM527 517v-517h-20v151q-24 -72 -79 -111t-136 -40q-94 0 -147 54t-53 150v313h20v-313q0 -87 47.5 -135.5t132.5 -48.5q101 2 158 66.5t57 177.5v253h20z" />
    <glyph glyph-name="ucircumflex" unicode="&#xfb;" horiz-adv-x="637" 
d="M229 624h-27l99 110h30l99 -110h-27l-87 96zM527 517v-517h-20v151q-24 -72 -79 -111t-136 -40q-94 0 -147 54t-53 150v313h20v-313q0 -87 47.5 -135.5t132.5 -48.5q101 2 158 66.5t57 177.5v253h20z" />
    <glyph glyph-name="udieresis" unicode="&#xfc;" horiz-adv-x="637" 
d="M241 640q-11 0 -18.5 8t-7.5 18t7.5 18t18.5 8t18.5 -8t7.5 -18t-7.5 -18t-18.5 -8zM391 640q-11 0 -18.5 8t-7.5 18t7.5 18t18.5 8t18.5 -8t7.5 -18t-7.5 -18t-18.5 -8zM527 517v-517h-20v151q-24 -72 -79 -111t-136 -40q-94 0 -147 54t-53 150v313h20v-313
q0 -87 47.5 -135.5t132.5 -48.5q101 2 158 66.5t57 177.5v253h20z" />
    <glyph glyph-name="yacute" unicode="&#xfd;" horiz-adv-x="456" 
d="M362 729l-129 -105h-32l142 115zM456 517l-242 -592q-49 -119 -135 -119q-55 0 -92 26l9 17q34 -23 81 -23q79 0 121 106l26 66l-214 519h23l201 -494l198 494h24z" />
    <glyph glyph-name="thorn" unicode="&#xfe;" horiz-adv-x="669" 
d="M366 517q109 0 180 -73.5t71 -185.5t-71 -185t-180 -73q-80 0 -141.5 41t-89.5 111v-346h-20v936h20v-377q28 70 89.5 111t141.5 41zM366 20q100 0 165.5 67t65.5 171t-65.5 171.5t-165.5 67.5t-165.5 -67.5t-65.5 -171.5t65.5 -171t165.5 -67z" />
    <glyph glyph-name="ydieresis" unicode="&#xff;" horiz-adv-x="456" 
d="M158 692q10 0 18 -8t8 -18t-8 -18t-18 -8t-18 8t-8 18t8 18t18 8zM308 692q10 0 18 -8t8 -18t-8 -18t-18 -8t-18 8t-8 18t8 18t18 8zM456 517l-242 -592q-49 -119 -135 -119q-55 0 -92 26l9 17q34 -23 81 -23q79 0 121 106l26 66l-214 519h23l201 -494l198 494h24z" />
    <glyph glyph-name="Amacron" unicode="&#x100;" horiz-adv-x="686" 
d="M452 839h-217v20h217v-20zM555 213h-424l-97 -213h-24l320 699h22l324 -699h-23zM546 233l-205 443l-201 -443h406z" />
    <glyph glyph-name="amacron" unicode="&#x101;" horiz-adv-x="562" 
d="M384 657h-217v20h217v-20zM449 0l-1 117q-66 -117 -217 -117q-74 0 -121 42t-47 107q0 63 51.5 98t140.5 35h192v63q-1 73 -42.5 112.5t-121.5 39.5q-89 0 -181 -72l-12 16q96 76 193 76q88 0 135.5 -46t48.5 -126l2 -345h-20zM232 20q159 0 216 142l-1 100h-192
q-82 0 -127 -29.5t-45 -83.5q0 -58 40.5 -93.5t108.5 -35.5z" />
    <glyph glyph-name="Abreve" unicode="&#x102;" horiz-adv-x="686" 
d="M343 803q-43 0 -73.5 30t-31.5 75h20q2 -36 26 -60.5t59 -24.5t59 24.5t26 60.5h20q-1 -45 -31.5 -75t-73.5 -30zM555 213h-424l-97 -213h-24l320 699h22l324 -699h-23zM546 233l-205 443l-201 -443h406z" />
    <glyph glyph-name="abreve" unicode="&#x103;" horiz-adv-x="562" 
d="M275 621q-43 0 -73.5 30t-31.5 75h20q2 -36 26 -60.5t59 -24.5t59 24.5t26 60.5h20q-1 -45 -31.5 -75t-73.5 -30zM449 0l-1 117q-66 -117 -217 -117q-74 0 -121 42t-47 107q0 63 51.5 98t140.5 35h192v63q-1 73 -42.5 112.5t-121.5 39.5q-89 0 -181 -72l-12 16
q96 76 193 76q88 0 135.5 -46t48.5 -126l2 -345h-20zM232 20q159 0 216 142l-1 100h-192q-82 0 -127 -29.5t-45 -83.5q0 -58 40.5 -93.5t108.5 -35.5z" />
    <glyph glyph-name="Aogonek" unicode="&#x104;" horiz-adv-x="686" 
d="M676 0h-1q-60 -81 -60 -131q0 -23 12.5 -35.5t31.5 -12.5q29 0 60 34l14 -14q-35 -40 -74 -40q-27 0 -45.5 19t-18.5 49q0 44 59 131h-1l-98 213h-424l-97 -213h-24l320 699h22zM140 233h405l-204 443z" />
    <glyph glyph-name="aogonek" unicode="&#x105;" horiz-adv-x="566" 
d="M288 517q86 0 134 -46t49 -126v-345h-1q-51 -47 -70 -76.5t-19 -54.5q0 -23 12.5 -35.5t31.5 -12.5q29 0 60 34l14 -14q-35 -40 -75 -40q-27 0 -45 19t-18 48q0 55 91 139h-1v108q-34 -58 -90.5 -86.5t-121.5 -28.5q-81 0 -128.5 42t-47.5 105q0 64 52 99.5t142 35.5h194
v63q-1 72 -42.5 112t-120.5 40q-93 0 -186 -72l-12 16q97 76 198 76zM451 262h-194q-84 0 -129 -29.5t-45 -86.5q0 -54 40.5 -90t116.5 -36q153 0 211 139v103z" />
    <glyph glyph-name="Cacute" unicode="&#x106;" horiz-adv-x="705" 
d="M482 911l-129 -105h-32l142 115zM409 699q137 0 240 -90l-13 -13q-95 84 -227 84q-140 0 -240 -97t-100 -233q0 -137 100 -234t240 -97q131 0 227 85l14 -13q-104 -91 -241 -91q-148 0 -253.5 103t-105.5 247t105.5 246.5t253.5 102.5z" />
    <glyph glyph-name="cacute" unicode="&#x107;" horiz-adv-x="557" 
d="M408 729l-129 -105h-32l142 115zM303 517q104 0 176 -69l-13 -14q-69 63 -163 63q-101 0 -166.5 -66.5t-65.5 -171.5t65.5 -172t166.5 -67q108 0 174 75l13 -14q-71 -81 -187 -81q-108 0 -179.5 73t-71.5 186q0 112 71.5 185t179.5 73z" />
    <glyph glyph-name="Ccaron" unicode="&#x10c;" horiz-adv-x="705" 
d="M239 916h27l87 -96l87 96h27l-99 -110h-30zM409 699q137 0 240 -90l-13 -13q-95 84 -227 84q-140 0 -240 -97t-100 -233q0 -137 100 -234t240 -97q131 0 227 85l14 -13q-104 -91 -241 -91q-148 0 -253.5 103t-105.5 247t105.5 246.5t253.5 102.5z" />
    <glyph glyph-name="ccaron" unicode="&#x10d;" horiz-adv-x="557" 
d="M165 734h27l87 -96l87 96h27l-99 -110h-30zM303 517q104 0 176 -69l-13 -14q-69 63 -163 63q-101 0 -166.5 -66.5t-65.5 -171.5t65.5 -172t166.5 -67q108 0 174 75l13 -14q-71 -81 -187 -81q-108 0 -179.5 73t-71.5 186q0 112 71.5 185t179.5 73z" />
    <glyph glyph-name="Dcaron" unicode="&#x10e;" horiz-adv-x="811" 
d="M272 916h27l87 -96l87 96h27l-99 -110h-30zM128 699h275q148 0 253 -102.5t105 -247.5q0 -144 -105 -246.5t-253 -102.5h-275v699zM148 679v-659h255q139 0 238.5 96.5t99.5 232.5t-99 233t-239 97h-255z" />
    <glyph glyph-name="dcaron" unicode="&#x10f;" horiz-adv-x="666" 
d="M538 742h20v-742h-20v152q-29 -71 -90.5 -112.5t-142.5 -41.5q-109 0 -181 73.5t-72 186.5t71.5 187t181.5 74q81 0 142.5 -41.5t90.5 -112.5v377zM663 699q11 0 18.5 -8t7.5 -19q0 -10 -10 -25l-31 -47h-20l27 47q-18 7 -18 26q0 11 7.5 18.5t18.5 7.5zM305 18
q101 0 167 68t66 172t-66 172.5t-167 68.5t-167 -68.5t-66 -172.5t66 -172t167 -68z" />
    <glyph glyph-name="Dcroat" unicode="&#x110;" horiz-adv-x="811" 
d="M495 839h-217v20h217v-20zM128 699h275q148 0 253 -102.5t105 -247.5q0 -144 -105 -246.5t-253 -102.5h-275v699zM148 679v-659h255q139 0 238.5 96.5t99.5 232.5t-99 233t-239 97h-255z" />
    <glyph glyph-name="dcroat" unicode="&#x111;" horiz-adv-x="667" 
d="M634 657h-76v-657h-20v152q-29 -71 -90.5 -112.5t-142.5 -41.5q-109 0 -181 73.5t-72 186.5t71.5 187t181.5 74q81 0 142.5 -41.5t90.5 -112.5v292h-121v20h121v65h20v-65h76v-20zM305 18q101 0 167 68t66 172t-66 172.5t-167 68.5t-167 -68.5t-66 -172.5t66 -172
t167 -68z" />
    <glyph glyph-name="Emacron" unicode="&#x112;" horiz-adv-x="644" 
d="M460 839h-217v20h217v-20zM565 679h-417v-309h371v-20h-371v-330h431v-20h-451v699h437v-20z" />
    <glyph glyph-name="emacron" unicode="&#x113;" horiz-adv-x="589" 
d="M404 657h-217v20h217v-20zM301 20q116 0 183 75l14 -14q-75 -81 -197 -81q-108 0 -178.5 73t-70.5 186q0 112 70.5 185t178.5 73q107 0 173.5 -72.5t66.5 -185.5h-469q0 -105 64.5 -172t164.5 -67zM301 497q-94 0 -157.5 -60.5t-70.5 -157.5h448q-7 98 -66 158t-154 60z
" />
    <glyph glyph-name="Edotaccent" unicode="&#x116;" horiz-adv-x="644" 
d="M351 874q11 0 18.5 -8t7.5 -18t-7.5 -18t-18.5 -8t-18.5 8t-7.5 18t7.5 18t18.5 8zM565 679h-417v-309h371v-20h-371v-330h431v-20h-451v699h437v-20z" />
    <glyph glyph-name="edotaccent" unicode="&#x117;" horiz-adv-x="589" 
d="M295 640q-11 0 -18.5 8t-7.5 18t7.5 18t18.5 8t18.5 -8t7.5 -18t-7.5 -18t-18.5 -8zM301 20q116 0 183 75l14 -14q-75 -81 -197 -81q-108 0 -178.5 73t-70.5 186q0 112 70.5 185t178.5 73q107 0 173.5 -72.5t66.5 -185.5h-469q0 -105 64.5 -172t164.5 -67zM301 497
q-94 0 -157.5 -60.5t-70.5 -157.5h448q-7 98 -66 158t-154 60z" />
    <glyph glyph-name="Eogonek" unicode="&#x118;" horiz-adv-x="644" 
d="M565 679h-417v-309h371v-20h-371v-330h431v-20h-57q-60 -82 -60 -131q0 -23 12.5 -35.5t31.5 -12.5q29 0 60 34l14 -14q-35 -40 -74 -40q-27 0 -45.5 19t-18.5 49q0 46 60 131h-374v699h437v-20z" />
    <glyph glyph-name="eogonek" unicode="&#x119;" horiz-adv-x="589" 
d="M301 517q107 0 173.5 -72.5t66.5 -185.5h-469q0 -105 64.5 -172t164.5 -67q116 0 183 75l14 -14q-96 -125 -96 -212q0 -23 12.5 -35.5t31.5 -12.5q28 0 59 34l14 -14q-35 -40 -73 -40q-27 0 -45.5 19t-18.5 49q0 76 75 182q-68 -51 -156 -51q-108 0 -178.5 73t-70.5 186
q0 112 70.5 185t178.5 73zM301 497q-95 0 -158.5 -60.5t-69.5 -157.5h448q-7 98 -66 158t-154 60z" />
    <glyph glyph-name="Ecaron" unicode="&#x11a;" horiz-adv-x="644" 
d="M237 916h27l87 -96l87 96h27l-99 -110h-30zM565 679h-417v-309h371v-20h-371v-330h431v-20h-451v699h437v-20z" />
    <glyph glyph-name="ecaron" unicode="&#x11b;" horiz-adv-x="589" 
d="M280 624l-99 110h27l87 -96l87 96h27l-99 -110h-30zM301 20q116 0 183 75l14 -14q-75 -81 -197 -81q-108 0 -178.5 73t-70.5 186q0 112 70.5 185t178.5 73q107 0 173.5 -72.5t66.5 -185.5h-469q0 -105 64.5 -172t164.5 -67zM301 497q-94 0 -157.5 -60.5t-70.5 -157.5h448
q-7 98 -66 158t-154 60z" />
    <glyph glyph-name="Gbreve" unicode="&#x11e;" horiz-adv-x="760" 
d="M380 803q-43 0 -73.5 30t-31.5 75h20q2 -36 26 -60.5t59 -24.5t59 24.5t26 60.5h20q-1 -45 -31.5 -75t-73.5 -30zM650 343v-252q-104 -91 -241 -91q-148 0 -253.5 103t-105.5 247t105.5 246.5t253.5 102.5q137 0 240 -90l-13 -13q-95 84 -227 84q-140 0 -240 -97
t-100 -233q0 -137 100 -234t240 -97q127 0 221 80v244h20z" />
    <glyph glyph-name="gbreve" unicode="&#x11f;" horiz-adv-x="630" 
d="M315 621q-43 0 -73.5 30t-31.5 75h20q2 -36 26 -60.5t59 -24.5t59 24.5t26 60.5h20q-1 -45 -31.5 -75t-73.5 -30zM536 517v-458q0 -115 -67 -184t-179 -68q-121 4 -208 90l14 14q80 -80 194 -84q103 -1 164.5 62.5t61.5 169.5v107q-27 -68 -86.5 -107.5t-136.5 -39.5
q-104 0 -172.5 70.5t-68.5 177.5q0 109 68.5 179.5t172.5 70.5q77 0 136.5 -40t86.5 -108v148h20zM293 38q97 0 160 65t63 164q0 100 -63 165.5t-160 65.5t-159.5 -65.5t-62.5 -165.5q0 -99 62.5 -164t159.5 -65z" />
    <glyph glyph-name="Gcommaaccent" unicode="&#x122;" horiz-adv-x="760" 
d="M650 343v-252q-104 -91 -241 -91q-148 0 -253.5 103t-105.5 247t105.5 246.5t253.5 102.5q137 0 240 -90l-13 -13q-95 84 -227 84q-140 0 -240 -97t-100 -233q0 -137 100 -234t240 -97q127 0 221 80v244h20zM385 -65q11 0 18.5 -8t7.5 -19q0 -10 -10 -25l-31 -47h-20
l27 47q-18 7 -18 26q0 11 7.5 18.5t18.5 7.5z" />
    <glyph glyph-name="gcommaaccent" unicode="&#x123;" horiz-adv-x="630" 
d="M311 582q-11 0 -18.5 8t-7.5 19q0 10 10 25l31 47h20l-27 -47q18 -7 18 -26q0 -11 -7.5 -18.5t-18.5 -7.5zM536 517v-458q0 -115 -67 -184t-179 -68q-121 4 -208 90l14 14q80 -80 194 -84q103 -1 164.5 62.5t61.5 169.5v107q-27 -68 -86.5 -107.5t-136.5 -39.5
q-104 0 -172.5 70.5t-68.5 177.5q0 109 68.5 179.5t172.5 70.5q77 0 136.5 -40t86.5 -108v148h20zM293 38q97 0 160 65t63 164q0 100 -63 165.5t-160 65.5t-159.5 -65.5t-62.5 -165.5q0 -99 62.5 -164t159.5 -65z" />
    <glyph glyph-name="hbar" unicode="&#x127;" horiz-adv-x="642" 
d="M354 517q96 0 149.5 -54t53.5 -150v-313h-20v313q0 87 -48.5 135.5t-134.5 48.5q-103 -2 -161 -66.5t-58 -177.5v-253h-20v615h-90v20h90v107h20v-107h180v-20h-180v-247q25 70 81 109t138 40z" />
    <glyph glyph-name="Itilde" unicode="&#x128;" horiz-adv-x="276" 
d="M75 902q25 0 64.5 -35t60.5 -35q50 0 50 60h20q0 -38 -18.5 -59t-51.5 -21q-24 0 -46 17.5t-41.5 35t-37.5 17.5q-50 0 -50 -60h-20q0 38 18.5 59t51.5 21zM148 0h-20v699h20v-699z" />
    <glyph glyph-name="itilde" unicode="&#x129;" horiz-adv-x="240" 
d="M57 720q25 0 64.5 -35t60.5 -35q50 0 50 60h20q0 -38 -18.5 -59t-51.5 -21q-24 0 -46 17.5t-41.5 35t-37.5 17.5q-50 0 -50 -60h-20q0 38 18.5 59t51.5 21zM130 0h-20v517h20v-517z" />
    <glyph glyph-name="Imacron" unicode="&#x12a;" horiz-adv-x="276" 
d="M246 839h-217v20h217v-20zM148 0h-20v699h20v-699z" />
    <glyph glyph-name="imacron" unicode="&#x12b;" horiz-adv-x="240" 
d="M228 657h-217v20h217v-20zM130 0h-20v517h20v-517z" />
    <glyph glyph-name="Iogonek" unicode="&#x12e;" horiz-adv-x="276" 
d="M192 -145l14 -14q-35 -40 -74 -40q-27 0 -45.5 19t-18.5 49q0 49 61 135h-1v695h20v-699h-1q-59 -81 -59 -131q0 -23 12.5 -35.5t31.5 -12.5q29 0 60 34z" />
    <glyph glyph-name="iogonek" unicode="&#x12f;" horiz-adv-x="230" 
d="M115 692q11 0 18.5 -8t7.5 -18t-7.5 -18t-18.5 -8t-18.5 8t-7.5 18t7.5 18t18.5 8zM125 0h-1q-51 -80 -51 -131q0 -23 12.5 -35.5t31.5 -12.5q29 0 60 34l14 -14q-35 -40 -74 -40q-27 0 -45.5 19t-18.5 49q0 45 53 131h-1v517h20v-517z" />
    <glyph glyph-name="Idotaccent" unicode="&#x130;" horiz-adv-x="276" 
d="M138 874q10 0 18 -8t8 -18t-8 -18t-18 -8t-18 8t-8 18t8 18t18 8zM148 0h-20v699h20v-699z" />
    <glyph glyph-name="dotlessi" unicode="&#x131;" horiz-adv-x="240" 
d="M130 0h-20v517h20v-517z" />
    <glyph glyph-name="IJ" unicode="&#x132;" horiz-adv-x="735" 
d="M148 0h-20v699h20v-699zM625 699v-502q0 -95 -44.5 -146t-127.5 -51q-106 0 -174 98l14 14q63 -92 160 -92q74 0 113 45.5t39 131.5v482h-262v20h282z" />
    <glyph glyph-name="ij" unicode="&#x133;" horiz-adv-x="475" 
d="M120 692q10 0 18 -8t8 -18t-8 -18t-18 -8t-18 8t-8 18t8 18t18 8zM355 692q11 0 18.5 -8t7.5 -18t-7.5 -18t-18.5 -8t-18.5 8t-7.5 18t7.5 18t18.5 8zM130 0h-20v517h20v-517zM365 517v-548q0 -81 -29.5 -122t-86.5 -40q-56 2 -102 37l12 16q39 -31 90 -33q47 -1 71.5 35
t24.5 107v548h20z" />
    <glyph glyph-name="Jcircumflex" unicode="&#x134;" horiz-adv-x="459" 
d="M318 806h-27l-87 96l-87 -96h-27l99 110h30zM349 699v-502q0 -95 -44.5 -146t-127.5 -51q-106 0 -174 98l14 14q63 -92 160 -92q74 0 113 45.5t39 131.5v482h-262v20h282z" />
    <glyph glyph-name="jcircumflex" unicode="&#x135;" horiz-adv-x="219" 
d="M229 624h-27l-87 96l-87 -96h-27l99 110h30zM125 517v-548q0 -81 -29.5 -122t-86.5 -40q-56 2 -102 37l12 16q39 -31 90 -33q47 -1 71.5 35t24.5 107v548h20z" />
    <glyph glyph-name="Kcommaaccent" unicode="&#x136;" horiz-adv-x="670" 
d="M640 0h-27l-300 370l-165 -179v-191h-20v699h20v-479l442 479h28l-291 -314zM340 -65q11 0 18.5 -8t7.5 -19q0 -10 -10 -25l-31 -47h-20l27 47q-18 7 -18 26q0 11 7.5 18.5t18.5 7.5z" />
    <glyph glyph-name="kcedilla" unicode="&#x137;" horiz-adv-x="538" 
d="M128 0l-19 -44q31 0 51.5 -19.5t21.5 -49.5q2 -35 -22 -58.5t-62 -23.5q-43 0 -70 20l8 19q26 -19 62 -19q29 0 47 17.5t17 44.5q-1 22 -16 36.5t-37 14.5h-28l27 62h7v742h20v-557l329 332h28l-197 -200l227 -317h-24l-217 302l-146 -148v-154h-7z" />
    <glyph glyph-name="kgreenlandic" unicode="&#x138;" horiz-adv-x="535" 
d="M278 302l-148 -150v-152h-20v517h20v-334l331 334h28l-197 -200l227 -317h-24z" />
    <glyph glyph-name="Lacute" unicode="&#x139;" horiz-adv-x="491" 
d="M277 911l-129 -105h-32l142 115zM148 20h313v-20h-333v699h20v-679z" />
    <glyph glyph-name="lacute" unicode="&#x13a;" horiz-adv-x="250" 
d="M254 954l-129 -105h-32l142 115zM135 0h-20v742h20v-742z" />
    <glyph glyph-name="Lcommaaccent" unicode="&#x13b;" horiz-adv-x="491" 
d="M461 20v-20h-333v699h20v-679h313zM293 -65q11 0 18.5 -8t7.5 -19q0 -10 -10 -25l-31 -47h-20l27 47q-18 7 -18 26q0 11 7.5 18.5t18.5 7.5z" />
    <glyph glyph-name="lcommaaccent" unicode="&#x13c;" horiz-adv-x="250" 
d="M135 0h-20v742h20v-742zM130 -65q11 0 18.5 -8t7.5 -19q0 -10 -10 -25l-31 -47h-20l27 47q-18 7 -18 26q0 11 7.5 18.5t18.5 7.5z" />
    <glyph glyph-name="Lcaron" unicode="&#x13d;" horiz-adv-x="491" 
d="M461 20v-20h-333v699h20v-679h313zM381 568l27 47q-18 7 -18 26q0 11 7.5 18.5t18.5 7.5t18.5 -8t7.5 -19q0 -10 -10 -25l-31 -47h-20z" />
    <glyph glyph-name="lcaron" unicode="&#x13e;" horiz-adv-x="236" 
d="M115 742h20v-742h-20v742zM233 699q11 0 18.5 -8t7.5 -19q0 -10 -10 -25l-31 -47h-20l27 47q-18 7 -18 26q0 11 7.5 18.5t18.5 7.5z" />
    <glyph glyph-name="Ldot" unicode="&#x13f;" horiz-adv-x="491" 
d="M148 20h313v-20h-333v699h20v-679zM369 442q11 0 18.5 -8t7.5 -18t-7.5 -18t-18.5 -8t-18.5 8t-7.5 18t7.5 18t18.5 8z" />
    <glyph glyph-name="ldot" unicode="&#x140;" horiz-adv-x="236" 
d="M135 0h-20v742h20v-742zM233 331q11 0 18.5 -7.5t7.5 -18.5t-7.5 -18.5t-18.5 -7.5t-18.5 7.5t-7.5 18.5t7.5 18.5t18.5 7.5z" />
    <glyph glyph-name="Lslash" unicode="&#x141;" horiz-adv-x="503" 
d="M473 20v-20h-333v437l-99 -28l-5 19l104 30v241h20v-235l184 53l5 -20l-189 -54v-423h313z" />
    <glyph glyph-name="lslash" unicode="&#x142;" horiz-adv-x="256" 
d="M145 462v-462h-20v456l-120 -34l-5 19l125 36v265h20v-259l117 34l5 -20z" />
    <glyph glyph-name="Nacute" unicode="&#x143;" horiz-adv-x="799" 
d="M529 911l-129 -105h-32l142 115zM671 0h-30l-493 679v-679h-20v699h30l493 -679v679h20v-699z" />
    <glyph glyph-name="nacute" unicode="&#x144;" horiz-adv-x="644" 
d="M332 624h-32l142 115l19 -10zM348 517q96 0 149.5 -54t53.5 -150v-313h-20v313q0 87 -48.5 135.5t-134.5 48.5q-96 -2 -153 -59t-65 -157v-281h-20v517h20v-146q25 69 81 107t137 39z" />
    <glyph glyph-name="Ncommaaccent" unicode="&#x145;" horiz-adv-x="799" 
d="M671 699v-699h-30l-493 679v-679h-20v699h30l493 -679v679h20zM405 -65q11 0 18.5 -8t7.5 -19q0 -10 -10 -25l-31 -47h-20l27 47q-18 7 -18 26q0 11 7.5 18.5t18.5 7.5z" />
    <glyph glyph-name="ncommaaccent" unicode="&#x146;" horiz-adv-x="644" 
d="M348 517q96 0 149.5 -54t53.5 -150v-313h-20v313q0 87 -48.5 135.5t-134.5 48.5q-96 -2 -153 -59t-65 -157v-281h-20v517h20v-146q25 69 81 107t137 39zM330 -65q11 0 18.5 -8t7.5 -19q0 -10 -10 -25l-31 -47h-20l27 47q-18 7 -18 26q0 11 7.5 18.5t18.5 7.5z" />
    <glyph glyph-name="Ncaron" unicode="&#x147;" horiz-adv-x="799" 
d="M286 916h27l87 -96l87 96h27l-99 -110h-30zM671 0h-30l-493 679v-679h-20v699h30l493 -679v679h20v-699z" />
    <glyph glyph-name="ncaron" unicode="&#x148;" horiz-adv-x="644" 
d="M317 624l-99 110h27l87 -96l87 96h27l-99 -110h-30zM348 517q96 0 149.5 -54t53.5 -150v-313h-20v313q0 87 -48.5 135.5t-134.5 48.5q-96 -2 -153 -59t-65 -157v-281h-20v517h20v-146q25 69 81 107t137 39z" />
    <glyph glyph-name="Omacron" unicode="&#x14c;" horiz-adv-x="818" 
d="M518 839h-217v20h217v-20zM409 699q148 0 253.5 -102.5t105.5 -246.5t-105.5 -247t-253.5 -103t-253.5 103t-105.5 247t105.5 246.5t253.5 102.5zM409 679q-140 0 -239.5 -96.5t-99.5 -232.5t100 -233t239 -97t239 97t100 233t-99.5 232.5t-239.5 96.5z" />
    <glyph glyph-name="omacron" unicode="&#x14d;" 
d="M412 657h-217v20h217v-20zM303 517q108 0 179.5 -73t71.5 -185q0 -113 -71.5 -186t-179.5 -73t-179.5 73t-71.5 186q0 112 71.5 185t179.5 73zM303 497q-101 0 -166 -66.5t-65 -171.5t65 -172t166 -67t166 67t65 172t-65 171.5t-166 66.5z" />
    <glyph glyph-name="Ohungarumlaut" unicode="&#x150;" horiz-adv-x="818" 
d="M430 910l-94 -104h-27l104 115zM549 910l-94 -104h-27l104 115zM409 699q148 0 253.5 -102.5t105.5 -246.5t-105.5 -247t-253.5 -103t-253.5 103t-105.5 247t105.5 246.5t253.5 102.5zM409 679q-140 0 -239.5 -96.5t-99.5 -232.5t100 -233t239 -97t239 97t100 233
t-99.5 232.5t-239.5 96.5z" />
    <glyph glyph-name="ohungarumlaut" unicode="&#x151;" 
d="M324 728l-94 -104h-27l104 115zM443 728l-94 -104h-27l104 115zM303 517q108 0 179.5 -73t71.5 -185q0 -113 -71.5 -186t-179.5 -73t-179.5 73t-71.5 186q0 112 71.5 185t179.5 73zM303 497q-101 0 -166 -66.5t-65 -171.5t65 -172t166 -67t166 67t65 172t-65 171.5
t-166 66.5z" />
    <glyph glyph-name="OE" unicode="&#x152;" horiz-adv-x="1089" 
d="M1024 20v-20h-615q-148 0 -253.5 103t-105.5 247t105.5 246.5t253.5 102.5h601v-20h-417v-309h371v-20h-371v-330h431zM573 17v663h-164q-140 0 -240 -97t-100 -233q0 -137 100 -234t240 -97z" />
    <glyph glyph-name="oe" unicode="&#x153;" horiz-adv-x="1075" 
d="M786 20q115 0 184 75l14 -14q-76 -81 -198 -81q-89 0 -154 50t-87 134q-23 -84 -88 -134t-154 -50q-108 0 -179.5 73t-71.5 186q0 112 71.5 185t179.5 73q89 0 154 -50t88 -133q22 83 87 133t154 50q107 0 174 -72.5t67 -185.5h-472q0 -105 65 -172t166 -67zM303 20
q101 0 166 67t65 172t-65 171.5t-166 66.5t-166 -66.5t-65 -171.5t65 -172t166 -67zM786 497q-95 0 -159 -60.5t-71 -157.5h451q-7 98 -66.5 158t-154.5 60z" />
    <glyph glyph-name="Racute" unicode="&#x154;" horiz-adv-x="722" 
d="M341 806h-32l142 115l19 -10zM632 472q0 -90 -47 -147.5t-134 -76.5l181 -248h-25l-178 244q-40 -4 -64 -4h-217v-240h-20v699h237q127 0 197 -59.5t70 -167.5zM148 260h217q118 0 182.5 55.5t64.5 156.5q0 99 -64.5 153t-182.5 54h-217v-419z" />
    <glyph glyph-name="racute" unicode="&#x155;" horiz-adv-x="338" 
d="M166 624h-32l142 115l19 -10zM130 517v-141q49 138 198 141v-20q-88 -2 -139.5 -58.5t-58.5 -155.5v-283h-20v517h20z" />
    <glyph glyph-name="Rcommaaccent" unicode="&#x156;" horiz-adv-x="722" 
d="M632 472q0 -90 -47 -147.5t-134 -76.5l181 -248h-25l-178 244q-40 -4 -64 -4h-217v-240h-20v699h237q127 0 197 -59.5t70 -167.5zM148 260h217q118 0 182.5 55.5t64.5 156.5q0 99 -64.5 153t-182.5 54h-217v-419zM366 -65q11 0 18.5 -8t7.5 -19q0 -10 -10 -25l-31 -47
h-20l27 47q-18 7 -18 26q0 11 7.5 18.5t18.5 7.5z" />
    <glyph glyph-name="rcommaaccent" unicode="&#x157;" horiz-adv-x="338" 
d="M130 517v-141q49 138 198 141v-20q-88 -2 -139.5 -58.5t-58.5 -155.5v-283h-20v517h20zM125 -65q11 0 18.5 -8t7.5 -19q0 -10 -10 -25l-31 -47h-20l27 47q-18 7 -18 26q0 11 7.5 18.5t18.5 7.5z" />
    <glyph glyph-name="Rcaron" unicode="&#x158;" horiz-adv-x="722" 
d="M326 806l-99 110h27l87 -96l87 96h27l-99 -110h-30zM632 472q0 -90 -47 -147.5t-134 -76.5l181 -248h-25l-178 244q-40 -4 -64 -4h-217v-240h-20v699h237q127 0 197 -59.5t70 -167.5zM148 260h217q118 0 182.5 55.5t64.5 156.5q0 99 -64.5 153t-182.5 54h-217v-419z" />
    <glyph glyph-name="rcaron" unicode="&#x159;" horiz-adv-x="338" 
d="M151 624l-99 110h27l87 -96l87 96h27l-99 -110h-30zM130 517v-141q49 138 198 141v-20q-88 -2 -139.5 -58.5t-58.5 -155.5v-283h-20v517h20z" />
    <glyph glyph-name="Sacute" unicode="&#x15a;" horiz-adv-x="593" 
d="M416 911l-129 -105h-32l142 115zM302 699q107 0 186 -51l-10 -16q-73 47 -176 47q-92 0 -147.5 -37t-55.5 -98q0 -47 23 -80t60 -51t82 -32t89.5 -29t81.5 -35t59.5 -57t22.5 -90q0 -77 -64.5 -123.5t-172.5 -46.5q-66 0 -130.5 26.5t-108.5 71.5l14 14q40 -42 101 -67
t124 -25q99 0 158 41t59 109q0 49 -22.5 83t-59.5 52.5t-81.5 32.5t-89.5 28.5t-82 34t-60 56t-23 87.5q0 70 61 112.5t162 42.5z" />
    <glyph glyph-name="sacute" unicode="&#x15b;" horiz-adv-x="427" 
d="M342 729l-129 -105h-32l142 115zM222 517q74 0 138 -37l-10 -17q-53 34 -127 34q-64 0 -104.5 -26t-40.5 -76q0 -43 32 -69t77.5 -39t91.5 -27t78 -45t32 -81q0 -66 -50.5 -100t-123.5 -34q-113 0 -185 72l13 15q69 -67 172 -67q65 0 108.5 27.5t45.5 81.5q1 37 -21 62.5
t-57 38t-75.5 26t-75.5 27t-58.5 41.5t-23.5 69q0 61 46.5 92.5t117.5 31.5z" />
    <glyph glyph-name="Scedilla" unicode="&#x15e;" horiz-adv-x="593" 
d="M99 544q0 -47 23 -80t60 -51t82 -32t89.5 -29t81.5 -35t59.5 -57t22.5 -90q0 -69 -52.5 -114t-143.5 -54l-21 -51q31 0 52 -19.5t22 -49.5q2 -35 -22 -58.5t-62 -23.5q-43 0 -70 20l8 19q26 -19 62 -19q29 0 47 17.5t17 44.5q-1 22 -16 36.5t-37 14.5h-29l29 67h-21
q-66 0 -130.5 26.5t-108.5 71.5l14 14q40 -42 101 -67t124 -25q99 0 158 41t59 109q0 49 -22.5 83t-59.5 52.5t-81.5 32.5t-89.5 28.5t-82 34t-60 56t-23 87.5q0 70 61 112.5t162 42.5q107 0 186 -51l-10 -16q-73 47 -176 47q-92 0 -147.5 -37t-55.5 -98z" />
    <glyph glyph-name="scedilla" unicode="&#x15f;" horiz-adv-x="427" 
d="M389 134q0 -62 -44 -95.5t-111 -37.5l-21 -50q31 0 52 -19.5t22 -49.5q2 -35 -22 -58.5t-62 -23.5q-43 0 -70 20l8 19q26 -19 62 -19q29 0 47 17.5t17 44.5q-1 22 -16 36.5t-37 14.5h-29l28 67q-111 0 -183 72l13 15q69 -67 172 -67q65 0 108.5 27.5t45.5 81.5
q1 37 -21 62.5t-57 38t-75.5 26t-75.5 27t-58.5 41.5t-23.5 69q0 61 46.5 92.5t117.5 31.5q74 0 138 -37l-10 -17q-53 34 -127 34q-64 0 -104.5 -26t-40.5 -76q0 -43 32 -69t77.5 -39t91.5 -27t78 -45t32 -81z" />
    <glyph glyph-name="Scaron" unicode="&#x160;" horiz-adv-x="593" 
d="M173 916h27l87 -96l87 96h27l-99 -110h-30zM302 699q107 0 186 -51l-10 -16q-73 47 -176 47q-92 0 -147.5 -37t-55.5 -98q0 -47 23 -80t60 -51t82 -32t89.5 -29t81.5 -35t59.5 -57t22.5 -90q0 -77 -64.5 -123.5t-172.5 -46.5q-66 0 -130.5 26.5t-108.5 71.5l14 14
q40 -42 101 -67t124 -25q99 0 158 41t59 109q0 49 -22.5 83t-59.5 52.5t-81.5 32.5t-89.5 28.5t-82 34t-60 56t-23 87.5q0 70 61 112.5t162 42.5z" />
    <glyph glyph-name="scaron" unicode="&#x161;" horiz-adv-x="427" 
d="M99 734h27l87 -96l87 96h27l-99 -110h-30zM222 517q74 0 138 -37l-10 -17q-53 34 -127 34q-64 0 -104.5 -26t-40.5 -76q0 -43 32 -69t77.5 -39t91.5 -27t78 -45t32 -81q0 -66 -50.5 -100t-123.5 -34q-113 0 -185 72l13 15q69 -67 172 -67q65 0 108.5 27.5t45.5 81.5
q1 37 -21 62.5t-57 38t-75.5 26t-75.5 27t-58.5 41.5t-23.5 69q0 61 46.5 92.5t117.5 31.5z" />
    <glyph glyph-name="Tcedilla" unicode="&#x162;" horiz-adv-x="526" 
d="M271 0l-20 -49q31 0 52 -19.5t22 -49.5q2 -35 -22 -58.5t-62 -23.5q-43 0 -70 20l8 19q26 -19 62 -19q29 0 47 17.5t17 44.5q-1 22 -16 36.5t-37 14.5h-29l30 71v675h-240v20h500v-20h-240v-679h-2z" />
    <glyph glyph-name="tcedilla" unicode="&#x163;" horiz-adv-x="362" 
d="M245 0l-21 -49q31 0 52 -19.5t22 -49.5q2 -35 -22 -58.5t-62 -23.5q-43 0 -70 20l8 19q26 -19 62 -19q29 0 47 17.5t17 44.5q-1 22 -16 36.5t-37 14.5h-29l28 67q-98 8 -98 142v345h-76v20h76v123h20v-123h182v-20h-182v-345q0 -60 23 -91.5t67 -30.5q51 2 90 33l12 -16
q-43 -32 -93 -37z" />
    <glyph glyph-name="Tcaron" unicode="&#x164;" horiz-adv-x="526" 
d="M149 916h27l87 -96l87 96h27l-99 -110h-30zM513 679h-240v-679h-20v679h-240v20h500v-20z" />
    <glyph glyph-name="tcaron" unicode="&#x165;" horiz-adv-x="362" 
d="M230 600l27 47q-18 7 -18 26q0 11 7.5 18.5t18.5 7.5t18.5 -8t7.5 -19q0 -10 -10 -25l-31 -47h-20zM326 53l12 -16q-46 -35 -102 -37q-54 -1 -82 35.5t-28 106.5v345h-76v20h76v123h20v-123h182v-20h-182v-345q0 -60 23 -91.5t67 -30.5q51 2 90 33z" />
    <glyph glyph-name="Umacron" unicode="&#x16a;" horiz-adv-x="774" 
d="M496 839h-217v20h217v-20zM664 699v-415q0 -136 -72.5 -210t-204.5 -74t-204.5 74t-72.5 210v415h20v-415q0 -126 67.5 -195t189.5 -69t189.5 69t67.5 195v415h20z" />
    <glyph glyph-name="umacron" unicode="&#x16b;" horiz-adv-x="637" 
d="M425 657h-217v20h217v-20zM527 517v-517h-20v151q-24 -72 -79 -111t-136 -40q-94 0 -147 54t-53 150v313h20v-313q0 -87 47.5 -135.5t132.5 -48.5q101 2 158 66.5t57 177.5v253h20z" />
    <glyph glyph-name="Uring" unicode="&#x16e;" horiz-adv-x="774" 
d="M387 958q46 0 79.5 -32.5t33.5 -76.5t-33.5 -76t-79.5 -32t-79 32t-33 76t33 76.5t79 32.5zM387 938q-37 0 -64.5 -26.5t-27.5 -62.5t27 -62t65 -26t65.5 26t27.5 62t-27.5 62.5t-65.5 26.5zM664 699v-415q0 -136 -72.5 -210t-204.5 -74t-204.5 74t-72.5 210v415h20v-415
q0 -126 67.5 -195t189.5 -69t189.5 69t67.5 195v415h20z" />
    <glyph glyph-name="uring" unicode="&#x16f;" horiz-adv-x="637" 
d="M316 559q-46 0 -79 32t-33 76t33 76.5t79 32.5t79.5 -32.5t33.5 -76.5t-33.5 -76t-79.5 -32zM316 756q-37 0 -64.5 -26.5t-27.5 -62.5t27 -62t65 -26t65.5 26t27.5 62t-27.5 62.5t-65.5 26.5zM527 517v-517h-20v151q-24 -72 -79 -111t-136 -40q-94 0 -147 54t-53 150v313
h20v-313q0 -87 47.5 -135.5t132.5 -48.5q101 2 158 66.5t57 177.5v253h20z" />
    <glyph glyph-name="Uhungarumlaut" unicode="&#x170;" horiz-adv-x="774" 
d="M408 910l-94 -104h-27l104 115zM527 910l-94 -104h-27l104 115zM664 699v-415q0 -136 -72.5 -210t-204.5 -74t-204.5 74t-72.5 210v415h20v-415q0 -126 67.5 -195t189.5 -69t189.5 69t67.5 195v415h20z" />
    <glyph glyph-name="uhungarumlaut" unicode="&#x171;" horiz-adv-x="637" 
d="M243 624h-27l104 115l17 -11zM335 624l104 115l17 -11l-94 -104h-27zM527 517v-517h-20v151q-24 -72 -79 -111t-136 -40q-94 0 -147 54t-53 150v313h20v-313q0 -87 47.5 -135.5t132.5 -48.5q101 2 158 66.5t57 177.5v253h20z" />
    <glyph glyph-name="Uogonek" unicode="&#x172;" horiz-adv-x="774" 
d="M664 699v-415q0 -111 -49 -181.5t-141 -92.5q-65 -87 -65 -141q0 -23 12.5 -35.5t31.5 -12.5q29 0 60 34l14 -14q-35 -40 -74 -40q-27 0 -45.5 19t-18.5 49q0 51 62 136q-33 -5 -64 -5q-132 0 -204.5 74t-72.5 210v415h20v-415q0 -126 67.5 -195t189.5 -69t189.5 69
t67.5 195v415h20z" />
    <glyph glyph-name="uogonek" unicode="&#x173;" horiz-adv-x="639" 
d="M534 0h-1q-66 -78 -66 -131q0 -48 43 -48q30 0 61 34l14 -14q-35 -40 -75 -40q-26 0 -44.5 17t-18.5 49q0 50 68 138h-1v141q-54 -145 -219 -145q-97 0 -149.5 53.5t-52.5 149.5v313h20v-313q0 -88 49 -136.5t135 -47.5q93 1 151.5 58.5t65.5 157.5v281h20v-517z" />
    <glyph glyph-name="Wcircumflex" unicode="&#x174;" horiz-adv-x="987" 
d="M508 806h-27l-87 96l-87 -96h-27l99 110h30zM740 0h-21l-225 671l-226 -671h-21l-237 699h23l225 -676l224 676h23l225 -676l224 676h23z" />
    <glyph glyph-name="wcircumflex" unicode="&#x175;" horiz-adv-x="818" 
d="M523 624h-27l-87 96l-87 -96h-27l99 110h30zM621 0h-22l-184 489l-186 -489h-22l-197 517h24l185 -494l183 494h24l185 -494l184 494h23z" />
    <glyph glyph-name="Ycircumflex" unicode="&#x176;" 
d="M216 806h-27l99 110h30l99 -110h-27l-87 96zM315 269v-269h-20v269l-285 430h24l271 -410l267 410h24z" />
    <glyph glyph-name="ycircumflex" unicode="&#x177;" horiz-adv-x="456" 
d="M347 624h-27l-87 96l-87 -96h-27l99 110h30zM456 517l-242 -592q-49 -119 -135 -119q-55 0 -92 26l9 17q34 -23 81 -23q79 0 121 106l26 66l-214 519h23l201 -494l198 494h24z" />
    <glyph glyph-name="Ydieresis" unicode="&#x178;" 
d="M228 822q-10 0 -18 8t-8 18t8 18t18 8t18 -8t8 -18t-8 -18t-18 -8zM378 822q-10 0 -18 8t-8 18t8 18t18 8t18 -8t8 -18t-8 -18t-18 -8zM315 269v-269h-20v269l-285 430h24l271 -410l267 410h24z" />
    <glyph glyph-name="Zacute" unicode="&#x179;" horiz-adv-x="650" 
d="M454 911l-129 -105h-32l142 115zM595 674l-523 -654h526v-20h-546v25l523 654h-509v20h529v-25z" />
    <glyph glyph-name="zacute" unicode="&#x17a;" horiz-adv-x="510" 
d="M384 729l-129 -105h-32l142 115zM452 491l-370 -471l377 -1v-20l-397 1v25l370 471l-361 1v20l381 -1v-25z" />
    <glyph glyph-name="Zdotaccent" unicode="&#x17b;" horiz-adv-x="650" 
d="M325 874q11 0 18.5 -8t7.5 -18t-7.5 -18t-18.5 -8t-18.5 8t-7.5 18t7.5 18t18.5 8zM595 674l-523 -654h526v-20h-546v25l523 654h-509v20h529v-25z" />
    <glyph glyph-name="zdotaccent" unicode="&#x17c;" horiz-adv-x="510" 
d="M255 692q11 0 18.5 -8t7.5 -18t-7.5 -18t-18.5 -8t-18.5 8t-7.5 18t7.5 18t18.5 8zM452 491l-370 -471l377 -1v-20l-397 1v25l370 471l-361 1v20l381 -1v-25z" />
    <glyph glyph-name="Zcaron" unicode="&#x17d;" horiz-adv-x="650" 
d="M211 916h27l87 -96l87 96h27l-99 -110h-30zM595 674l-523 -654h526v-20h-546v25l523 654h-509v20h529v-25z" />
    <glyph glyph-name="zcaron" unicode="&#x17e;" horiz-adv-x="510" 
d="M141 734h27l87 -96l87 96h27l-99 -110h-30zM452 491l-370 -471l377 -1v-20l-397 1v25l370 471l-361 1v20l381 -1v-25z" />
    <glyph glyph-name="florin" unicode="&#x192;" horiz-adv-x="310" 
d="M284 732q-48 1 -82 -35t-41 -97l-17 -138h169l-2 -20h-169l-59 -484q-9 -74 -39.5 -113.5t-85.5 -38.5q-48 2 -87 37l14 16q31 -31 75 -33q46 -1 70.5 33.5t32.5 98.5l59 484h-64l2 20h64l17 138q9 70 48.5 111.5t96.5 40.5q54 -2 98 -37l-14 -16q-38 31 -86 33z" />
    <glyph glyph-name="Scommaaccent" unicode="&#x218;" horiz-adv-x="593" 
d="M99 544q0 -47 23 -80t60 -51t82 -32t89.5 -29t81.5 -35t59.5 -57t22.5 -90q0 -77 -64.5 -123.5t-172.5 -46.5q-66 0 -130.5 26.5t-108.5 71.5l14 14q40 -42 101 -67t124 -25q99 0 158 41t59 109q0 49 -22.5 83t-59.5 52.5t-81.5 32.5t-89.5 28.5t-82 34t-60 56t-23 87.5
q0 70 61 112.5t162 42.5q107 0 186 -51l-10 -16q-73 47 -176 47q-92 0 -147.5 -37t-55.5 -98zM302 -65q11 0 18.5 -8t7.5 -19q0 -10 -10 -25l-31 -47h-20l27 47q-18 7 -18 26q0 11 7.5 18.5t18.5 7.5z" />
    <glyph glyph-name="scommaaccent" unicode="&#x219;" horiz-adv-x="427" 
d="M78 395q0 -43 32 -69t77.5 -39t91.5 -27t78 -45t32 -81q0 -66 -50.5 -100t-123.5 -34q-113 0 -185 72l13 15q69 -67 172 -67q65 0 108.5 27.5t45.5 81.5q1 37 -21 62.5t-57 38t-75.5 26t-75.5 27t-58.5 41.5t-23.5 69q0 61 46.5 92.5t117.5 31.5q74 0 138 -37l-10 -17
q-53 34 -127 34q-64 0 -104.5 -26t-40.5 -76zM215 -65q11 0 18.5 -8t7.5 -19q0 -10 -10 -25l-31 -47h-20l27 47q-18 7 -18 26q0 11 7.5 18.5t18.5 7.5z" />
    <glyph glyph-name="Tcommaaccent" unicode="&#x21a;" horiz-adv-x="526" 
d="M513 699v-20h-240v-679h-20v679h-240v20h500zM253 -65q11 0 18.5 -8t7.5 -19q0 -10 -10 -25l-31 -47h-20l27 47q-18 7 -18 26q0 11 7.5 18.5t18.5 7.5z" />
    <glyph glyph-name="tcommaaccent" unicode="&#x21b;" horiz-adv-x="362" 
d="M236 0q-54 -1 -82 35.5t-28 106.5v345h-76v20h76v123h20v-123h182v-20h-182v-345q0 -60 23 -91.5t67 -30.5q51 2 90 33l12 -16q-46 -35 -102 -37zM226 -65q11 0 18.5 -8t7.5 -19q0 -10 -10 -25l-31 -47h-20l27 47q-18 7 -18 26q0 11 7.5 18.5t18.5 7.5z" />
    <glyph glyph-name="dotlessj" unicode="&#x237;" horiz-adv-x="219" 
d="M125 517v-548q0 -81 -29.5 -122t-86.5 -40q-56 2 -102 37l12 16q39 -31 90 -33q47 -1 71.5 35t24.5 107v548h20z" />
    <glyph glyph-name="circumflex" unicode="&#x2c6;" horiz-adv-x="350" 
d="M289 624h-27l-87 96l-87 -96h-27l99 110h30z" />
    <glyph glyph-name="caron" unicode="&#x2c7;" horiz-adv-x="350" 
d="M61 734h27l87 -96l87 96h27l-99 -110h-30z" />
    <glyph glyph-name="firsttonechinese" unicode="&#x2c9;" horiz-adv-x="350" 
d="M284 657h-217v20h217v-20z" />
    <glyph glyph-name="breve" unicode="&#x2d8;" horiz-adv-x="350" 
d="M260 726h20q-1 -45 -31.5 -75t-73.5 -30t-73.5 30t-31.5 75h20q2 -36 26 -60.5t59 -24.5t59 24.5t26 60.5z" />
    <glyph glyph-name="dotaccent" unicode="&#x2d9;" horiz-adv-x="350" 
d="M175 692q11 0 18.5 -8t7.5 -18t-7.5 -18t-18.5 -8t-18.5 8t-7.5 18t7.5 18t18.5 8z" />
    <glyph glyph-name="ring" unicode="&#x2da;" horiz-adv-x="350" 
d="M175 776q46 0 79.5 -32.5t33.5 -76.5t-33.5 -76t-79.5 -32t-79 32t-33 76t33 76.5t79 32.5zM175 756q-37 0 -64.5 -26.5t-27.5 -62.5t27 -62t65 -26t65.5 26t27.5 62t-27.5 62.5t-65.5 26.5z" />
    <glyph glyph-name="ogonek" unicode="&#x2db;" horiz-adv-x="350" 
d="M166 0h20q-60 -82 -60 -131q0 -23 12.5 -35.5t31.5 -12.5q29 0 60 34l14 -14q-35 -40 -74 -40q-27 0 -45.5 19t-18.5 49q0 46 60 131z" />
    <glyph glyph-name="tilde" unicode="&#x2dc;" horiz-adv-x="350" 
d="M113 720q25 0 64.5 -35t60.5 -35q50 0 50 60h20q0 -38 -18.5 -59t-51.5 -21q-24 0 -46 17.5t-41.5 35t-37.5 17.5q-50 0 -50 -60h-20q0 38 18.5 59t51.5 21z" />
    <glyph glyph-name="hungarumlaut" unicode="&#x2dd;" horiz-adv-x="350" 
d="M176 728l-94 -104h-27l104 115zM295 728l-94 -104h-27l104 115z" />
    <glyph glyph-name="commaaccent" unicode="&#x326;" horiz-adv-x="0" 
d="M87 -65q11 0 18.5 -8t7.5 -19q0 -10 -10 -25l-31 -47h-20l27 47q-18 7 -18 26q0 11 7.5 18.5t18.5 7.5z" />
    <glyph glyph-name="Delta" unicode="&#x394;" horiz-adv-x="686" 
d="M676 0h-666l320 699h22zM644 20l-303 656l-298 -656h601z" />
    <glyph glyph-name="pi" unicode="&#x3c0;" horiz-adv-x="718" 
d="M711 497h-182v-497h-20v497h-242l-58 -497h-20l58 497h-85q-61 0 -102 -36.5t-40 -89.5q2 -48 33 -91l-16 -11q-35 45 -37 102q-1 61 46 103.5t116 42.5h550z" />
    <glyph glyph-name="Wgrave" unicode="&#x1e80;" horiz-adv-x="987" 
d="M426 806h-32l-129 105l19 10zM740 0h-21l-225 671l-226 -671h-21l-237 699h23l225 -676l224 676h23l225 -676l224 676h23z" />
    <glyph glyph-name="wgrave" unicode="&#x1e81;" horiz-adv-x="818" 
d="M441 624h-32l-129 105l19 10zM621 0h-22l-184 489l-186 -489h-22l-197 517h24l185 -494l183 494h24l185 -494l184 494h23z" />
    <glyph glyph-name="Wacute" unicode="&#x1e82;" horiz-adv-x="987" 
d="M523 911l-129 -105h-32l142 115zM740 0h-21l-225 671l-226 -671h-21l-237 699h23l225 -676l224 676h23l225 -676l224 676h23z" />
    <glyph glyph-name="wacute" unicode="&#x1e83;" horiz-adv-x="818" 
d="M538 729l-129 -105h-32l142 115zM621 0h-22l-184 489l-186 -489h-22l-197 517h24l185 -494l183 494h24l185 -494l184 494h23z" />
    <glyph glyph-name="Wdieresis" unicode="&#x1e84;" horiz-adv-x="987" 
d="M319 874q11 0 18.5 -8t7.5 -18t-7.5 -18t-18.5 -8t-18.5 8t-7.5 18t7.5 18t18.5 8zM469 874q11 0 18.5 -8t7.5 -18t-7.5 -18t-18.5 -8t-18.5 8t-7.5 18t7.5 18t18.5 8zM740 0h-21l-225 671l-226 -671h-21l-237 699h23l225 -676l224 676h23l225 -676l224 676h23z" />
    <glyph glyph-name="wdieresis" unicode="&#x1e85;" horiz-adv-x="818" 
d="M334 692q10 0 18 -8t8 -18t-8 -18t-18 -8t-18 8t-8 18t8 18t18 8zM484 692q10 0 18 -8t8 -18t-8 -18t-18 -8t-18 8t-8 18t8 18t18 8zM621 0h-22l-184 489l-186 -489h-22l-197 517h24l185 -494l183 494h24l185 -494l184 494h23z" />
    <glyph glyph-name="Ygrave" unicode="&#x1ef2;" 
d="M303 806l-129 105l19 10l142 -115h-32zM315 269v-269h-20v269l-285 430h24l271 -410l267 410h24z" />
    <glyph glyph-name="ygrave" unicode="&#x1ef3;" horiz-adv-x="456" 
d="M265 624h-32l-129 105l19 10zM456 517l-242 -592q-49 -119 -135 -119q-55 0 -92 26l9 17q34 -23 81 -23q79 0 121 106l26 66l-214 519h23l201 -494l198 494h24z" />
    <glyph glyph-name="endash" unicode="&#x2013;" horiz-adv-x="400" 
d="M400 240h-400v20h400v-20z" />
    <glyph glyph-name="emdash" unicode="&#x2014;" horiz-adv-x="760" 
d="M760 240h-760v20h760v-20z" />
    <glyph glyph-name="quoteleft" unicode="&#x2018;" horiz-adv-x="170" 
d="M113 709l-27 -47q18 -7 18 -26q0 -11 -7.5 -18.5t-18.5 -7.5t-18.5 8t-7.5 19q0 10 10 25l31 47h20z" />
    <glyph glyph-name="quoteright" unicode="&#x2019;" horiz-adv-x="170" 
d="M87 699q11 0 18.5 -8t7.5 -19q0 -10 -10 -25l-31 -47h-20l27 47q-18 7 -18 26q0 11 7.5 18.5t18.5 7.5z" />
    <glyph glyph-name="quotesinglbase" unicode="&#x201a;" horiz-adv-x="170" 
d="M87 45q11 0 18.5 -8t7.5 -19q0 -10 -10 -25l-31 -47h-20l27 47q-18 7 -18 26q0 11 7.5 18.5t18.5 7.5z" />
    <glyph glyph-name="quotedblleft" unicode="&#x201c;" horiz-adv-x="260" 
d="M113 709l-27 -47q18 -7 18 -26q0 -11 -7.5 -18.5t-18.5 -7.5t-18.5 8t-7.5 19q0 10 10 25l31 47h20zM203 709l-27 -47q18 -7 18 -26q0 -11 -7.5 -18.5t-18.5 -7.5t-18.5 8t-7.5 19q0 10 10 25l31 47h20z" />
    <glyph glyph-name="quotedblright" unicode="&#x201d;" horiz-adv-x="260" 
d="M87 699q11 0 18.5 -8t7.5 -19q0 -10 -10 -25l-31 -47h-20l27 47q-18 7 -18 26q0 11 7.5 18.5t18.5 7.5zM177 699q11 0 18.5 -8t7.5 -19q0 -10 -10 -25l-31 -47h-20l27 47q-18 7 -18 26q0 11 7.5 18.5t18.5 7.5z" />
    <glyph glyph-name="quotedblbase" unicode="&#x201e;" horiz-adv-x="260" 
d="M87 45q11 0 18.5 -8t7.5 -19q0 -10 -10 -25l-31 -47h-20l27 47q-18 7 -18 26q0 11 7.5 18.5t18.5 7.5zM177 45q11 0 18.5 -8t7.5 -19q0 -10 -10 -25l-31 -47h-20l27 47q-18 7 -18 26q0 11 7.5 18.5t18.5 7.5z" />
    <glyph glyph-name="dagger" unicode="&#x2020;" horiz-adv-x="480" 
d="M250 461h220v-20h-220v-635h-20v635h-220v20h220v238h20v-238z" />
    <glyph glyph-name="daggerdbl" unicode="&#x2021;" horiz-adv-x="480" 
d="M250 441v-340h220v-20h-220v-275h-20v275h-220v20h220v340h-220v20h220v238h20v-238h220v-20h-220z" />
    <glyph glyph-name="bullet" unicode="&#x2022;" horiz-adv-x="196" 
d="M98 309q16 0 27.5 -11.5t11.5 -27.5t-11.5 -27.5t-27.5 -11.5t-27.5 11.5t-11.5 27.5t11.5 27.5t27.5 11.5z" />
    <glyph glyph-name="ellipsis" unicode="&#x2026;" horiz-adv-x="490" 
d="M85 45q11 0 18.5 -7.5t7.5 -18.5t-7.5 -18.5t-18.5 -7.5t-18.5 7.5t-7.5 18.5t7.5 18.5t18.5 7.5zM245 45q11 0 18.5 -7.5t7.5 -18.5t-7.5 -18.5t-18.5 -7.5t-18.5 7.5t-7.5 18.5t7.5 18.5t18.5 7.5zM405 45q11 0 18.5 -7.5t7.5 -18.5t-7.5 -18.5t-18.5 -7.5t-18.5 7.5
t-7.5 18.5t7.5 18.5t18.5 7.5z" />
    <glyph glyph-name="perthousand" unicode="&#x2030;" horiz-adv-x="1328" 
d="M217 699q81 0 125 -53t44 -150q0 -98 -44 -150.5t-125 -52.5q-80 0 -123.5 52.5t-43.5 150.5t43.5 150.5t123.5 52.5zM156 0l538 699h26l-538 -699h-26zM217 681q-71 0 -108.5 -47.5t-37.5 -137.5t37.5 -137.5t108.5 -47.5t109 47.5t38 137.5t-38 137.5t-109 47.5z
M673 406q81 0 125 -53t44 -150q0 -98 -44 -150.5t-125 -52.5q-80 0 -123.5 52.5t-43.5 150.5t43.5 150.5t123.5 52.5zM1109 406q81 0 125 -53t44 -150q0 -98 -44 -150.5t-125 -52.5q-80 0 -123.5 52.5t-43.5 150.5t43.5 150.5t123.5 52.5zM673 388q-71 0 -108.5 -47.5
t-37.5 -137.5t37.5 -137.5t108.5 -47.5t109 47.5t38 137.5t-38 137.5t-109 47.5zM1109 388q-71 0 -108.5 -47.5t-37.5 -137.5t37.5 -137.5t108.5 -47.5t109 47.5t38 137.5t-38 137.5t-109 47.5z" />
    <glyph glyph-name="guilsinglleft" unicode="&#x2039;" horiz-adv-x="268" 
d="M83 247l108 -153h-24l-109 153l109 156h24z" />
    <glyph glyph-name="guilsinglright" unicode="&#x203a;" horiz-adv-x="268" 
d="M185 250l-108 153h24l109 -153l-109 -156h-24z" />
    <glyph glyph-name="fraction" unicode="&#x2044;" horiz-adv-x="20" 
d="M-280 0l538 699h26l-538 -699h-26z" />
    <glyph glyph-name="Euro" unicode="&#x20ac;" horiz-adv-x="805" 
d="M736 104l14 -13q-104 -91 -241 -91q-113 0 -205 63.5t-131 164.5h-121v20h114q-16 51 -16 102q0 40 9 78h-107v20h113q33 110 128.5 180.5t215.5 70.5q137 0 240 -90l-13 -13q-95 84 -227 84q-113 0 -202.5 -65t-122.5 -167h308v-20h-313q-10 -36 -10 -78q0 -53 17 -102
h306v-20h-299q38 -93 124 -151t192 -58q131 0 227 85z" />
    <glyph glyph-name="literSign" unicode="&#x2113;" horiz-adv-x="462" 
d="M326 699q38 0 64.5 -25.5t26.5 -75.5q0 -77 -67.5 -177t-198.5 -204q-20 -95 -2 -147t83 -52q89 0 175 100l14 -11q-90 -107 -189 -107q-73 0 -95 51.5t-8 148.5l-64 -51l-11 15l80 63l55 323q15 73 52 111t85 38zM326 681q-41 0 -73 -34t-45 -101l-52 -302
q117 93 179.5 188t62.5 166q0 42 -20.5 62.5t-51.5 20.5z" />
    <glyph glyph-name="trademark" unicode="&#x2122;" horiz-adv-x="857" 
d="M302 679h-141v-399h-20v399h-141v20h302v-20zM787 280h-20l-1 400l-177 -354h-10l-177 354v-400h-20v419h32l171 -341l169 341h33v-419z" />
    <glyph glyph-name="Omega" unicode="&#x2126;" horiz-adv-x="926" 
d="M463 699q154 0 256.5 -98.5t102.5 -247.5q0 -96 -48.5 -188.5t-126.5 -144.5h266v-20h-304v21q84 44 138.5 137.5t54.5 194.5q0 141 -96 233.5t-243 92.5t-243 -92.5t-96 -233.5q0 -101 54.5 -195.5t139.5 -137.5v-20h-305v20h266q-78 52 -126.5 144.5t-48.5 188.5
q0 149 102.5 247.5t256.5 98.5z" />
    <glyph glyph-name="estimated" unicode="&#x212e;" horiz-adv-x="809" 
d="M740 312h-543q-5 0 -5 -4v-164q0 -9 8 -19q83 -89 206 -89q63 0 119.5 26.5t95.5 72.5h49q-46 -54 -116 -85.5t-149 -31.5q-139 0 -237 88t-98 213t98 213.5t237 88.5t237 -88.5t98 -213.5v-7zM618 333v165q0 11 -9 20q-85 85 -203 85q-120 0 -205 -88q-9 -9 -9 -20v-162
q0 -5 5 -5h416q5 0 5 5z" />
    <glyph glyph-name="oneeighth" unicode="&#x215b;" horiz-adv-x="734" 
d="M21 0l538 699h26l-538 -699h-26zM116 293v387h-89v19h110v-406h-21zM538 406q59 0 93 -26t34 -72q0 -67 -75 -91q94 -22 94 -104q0 -54 -38.5 -83.5t-107.5 -29.5t-108 29.5t-39 83.5q0 81 95 104q-76 24 -76 92q0 46 34 71.5t94 25.5zM538 389q-51 0 -80 -22t-29 -60
q0 -39 29 -61t80 -22q50 0 79 22t29 61q0 38 -29 60t-79 22zM537 206q-58 0 -92 -24.5t-34 -66.5q0 -46 33.5 -71.5t93.5 -25.5q59 0 92.5 25.5t33.5 70.5q0 43 -33.5 67.5t-93.5 24.5z" />
    <glyph glyph-name="threeeighths" unicode="&#x215c;" horiz-adv-x="801" 
d="M88 0l538 699h26l-538 -699h-26zM123 523h25q62 -1 99.5 -29t37.5 -78q0 -55 -38 -89t-103 -34q-69 0 -122 35l11 17q47 -34 110 -34q56 0 88.5 28.5t32.5 74.5q0 45 -32 68.5t-90 23.5h-45v15l142 159h-200v18h226v-15zM605 406q59 0 93 -26t34 -72q0 -67 -75 -91
q94 -22 94 -104q0 -54 -38.5 -83.5t-107.5 -29.5t-108 29.5t-39 83.5q0 81 95 104q-76 24 -76 92q0 46 34 71.5t94 25.5zM605 389q-51 0 -80 -22t-29 -60q0 -39 29 -61t80 -22q50 0 79 22t29 61q0 38 -29 60t-79 22zM604 206q-58 0 -92 -24.5t-34 -66.5q0 -46 33.5 -71.5
t93.5 -25.5q59 0 92.5 25.5t33.5 70.5q0 43 -33.5 67.5t-93.5 24.5z" />
    <glyph glyph-name="fiveeighths" unicode="&#x215d;" horiz-adv-x="823" 
d="M88 680v-159q45 15 86 15q63 0 100 -30.5t37 -81.5q0 -59 -37.5 -94.5t-101.5 -35.5q-69 0 -132 40l10 17q57 -39 121 -39q55 0 87 30t32 81q0 43 -32 69t-86 26t-105 -19v200h229v-19h-208zM110 0l538 699h26l-538 -699h-26zM627 406q59 0 93 -26t34 -72q0 -67 -75 -91
q94 -22 94 -104q0 -54 -38.5 -83.5t-107.5 -29.5t-108 29.5t-39 83.5q0 81 95 104q-76 24 -76 92q0 46 34 71.5t94 25.5zM627 389q-51 0 -80 -22t-29 -60q0 -39 29 -61t80 -22q50 0 79 22t29 61q0 38 -29 60t-79 22zM626 206q-58 0 -92 -24.5t-34 -66.5q0 -46 33.5 -71.5
t93.5 -25.5q59 0 92.5 25.5t33.5 70.5q0 43 -33.5 67.5t-93.5 24.5z" />
    <glyph glyph-name="seveneighths" unicode="&#x215e;" horiz-adv-x="784" 
d="M132 293h-23l185 387h-234v-64h-20v83h275v-21zM71 0l538 699h26l-538 -699h-26zM588 406q59 0 93 -26t34 -72q0 -67 -75 -91q94 -22 94 -104q0 -54 -38.5 -83.5t-107.5 -29.5t-108 29.5t-39 83.5q0 81 95 104q-76 24 -76 92q0 46 34 71.5t94 25.5zM588 389
q-51 0 -80 -22t-29 -60q0 -39 29 -61t80 -22q50 0 79 22t29 61q0 38 -29 60t-79 22zM587 206q-58 0 -92 -24.5t-34 -66.5q0 -46 33.5 -71.5t93.5 -25.5q59 0 92.5 25.5t33.5 70.5q0 43 -33.5 67.5t-93.5 24.5z" />
    <glyph glyph-name="partialdiff" unicode="&#x2202;" horiz-adv-x="587" 
d="M261 699q123 0 194.5 -100.5t71.5 -267.5q0 -160 -67.5 -245.5t-188.5 -85.5q-101 0 -161 59.5t-60 162.5q0 101 58 158.5t159 57.5q95 0 157 -50.5t79 -138.5q17 200 -48 315t-196 115q-88 0 -169 -52l-10 18q93 54 181 54zM267 418q-90 0 -143.5 -52.5t-53.5 -141.5
q0 -93 57 -148.5t149 -55.5q53 0 95 19t66 49.5t36.5 63.5t12.5 64q0 82 -60 142t-159 60z" />
    <glyph glyph-name="product" unicode="&#x220f;" horiz-adv-x="763" 
d="M635 -194h-20v916h-467v-916h-20v936h507v-936z" />
    <glyph glyph-name="summation" unicode="&#x2211;" horiz-adv-x="603" 
d="M593 722h-527l344 -409l-347 -431h540v-20h-563v24l344 427l-341 405v24h550v-20z" />
    <glyph glyph-name="minus" unicode="&#x2212;" horiz-adv-x="480" 
d="M440 310h-400v20h400v-20z" />
    <glyph glyph-name="divisionslash" unicode="&#x2215;" horiz-adv-x="294" 
d="M25 -130h-21l306 956h21z" />
    <glyph glyph-name="bulletoperator" unicode="&#x2219;" horiz-adv-x="196" 
d="M98 309q16 0 27.5 -11.5t11.5 -27.5t-11.5 -27.5t-27.5 -11.5t-27.5 11.5t-11.5 27.5t11.5 27.5t27.5 11.5z" />
    <glyph glyph-name="radical" unicode="&#x221a;" horiz-adv-x="658" 
d="M158 380l171 -500l281 877h22l-292 -903h-22l-174 507h-119v19h133z" />
    <glyph glyph-name="infinity" unicode="&#x221e;" horiz-adv-x="910" 
d="M682 483q75 0 125.5 -50.5t50.5 -125.5t-50.5 -125.5t-125.5 -50.5q-45 0 -81 12t-63 37t-44 47t-39 59q-22 -37 -39 -59.5t-44 -47.5t-63 -37t-81 -12q-75 0 -125.5 50.5t-50.5 125.5t50.5 125.5t125.5 50.5q45 0 81 -12t63 -37t44 -47t39 -59q22 37 39 59.5t44 47.5
t63 37t81 12zM682 151q68 0 112 44.5t44 111.5t-44 111.5t-112 44.5q-43 0 -76.5 -12t-59.5 -38t-41.5 -47t-37.5 -59q22 -38 37.5 -59.5t41.5 -47t59.5 -37.5t76.5 -12zM228 150q43 0 76 12t59.5 38t41.5 46.5t38 59.5q-23 38 -38.5 59.5t-41.5 47.5t-59 37.5t-76 11.5
q-68 0 -112 -44t-44 -112t44 -112t112 -44z" />
    <glyph glyph-name="integral" unicode="&#x222b;" horiz-adv-x="265" 
d="M255 811l-9 -18q-18 11 -42 11q-37 0 -53 -33t-16 -112q0 -83 8 -298t8 -305q0 -89 -20.5 -127t-68.5 -38q-23 0 -52 13l9 18q18 -11 43 -11q37 0 53 33t16 112q0 90 -8 305t-8 298q0 89 20.5 127t68.5 38q22 0 51 -13z" />
    <glyph glyph-name="approxequal" unicode="&#x2248;" horiz-adv-x="480" 
d="M153 477q30 0 89.5 -35t85.5 -35q50 0 50 60h20q0 -38 -18.5 -59t-51.5 -21q-35 0 -92.5 35t-82.5 35q-50 0 -50 -60h-20q0 38 18.5 59t51.5 21zM153 276q30 0 89.5 -35t85.5 -35q50 0 50 60h20q0 -38 -18.5 -59t-51.5 -21q-35 0 -92.5 35t-82.5 35q-50 0 -50 -60h-20
q0 38 18.5 59t51.5 21z" />
    <glyph glyph-name="notequal" unicode="&#x2260;" horiz-adv-x="480" 
d="M272 410l-58 -180h226v-20h-232l-52 -161h-19l52 161h-149v20h155l58 180h-213v20h219l50 156h19l-50 -156h162v-20h-168z" />
    <glyph glyph-name="lessequal" unicode="&#x2264;" horiz-adv-x="480" 
d="M440 554l-381 -177l381 -177v-22l-400 186v26l400 186v-22zM440 55h-400v20h400v-20z" />
    <glyph glyph-name="greaterequal" unicode="&#x2265;" horiz-adv-x="480" 
d="M40 200l381 177l-381 177v22l400 -186v-26l-400 -186v22zM440 55h-400v20h400v-20z" />
    <glyph glyph-name="lozenge" unicode="&#x25ca;" horiz-adv-x="499" 
d="M447 330l-198 -296l-197 296l198 293zM76 330l173 -260l174 260l-173 259z" />
    <glyph glyph-name="zero.dnom" horiz-adv-x="436" 
d="M217 406q81 0 125 -53t44 -150q0 -98 -44 -150.5t-125 -52.5q-80 0 -123.5 52.5t-43.5 150.5t43.5 150.5t123.5 52.5zM217 388q-71 0 -108.5 -47.5t-37.5 -137.5t37.5 -137.5t108.5 -47.5t109 47.5t38 137.5t-38 137.5t-109 47.5z" />
    <glyph glyph-name="one.dnom" horiz-adv-x="241" 
d="M116 0v387h-89v19h110v-406h-21z" />
    <glyph glyph-name="two.dnom" horiz-adv-x="374" 
d="M173 406q55 0 87.5 -26t32.5 -70q0 -58 -73 -129l-151 -162h254v-19h-278v21l161 172q66 66 66 116q0 36 -27 57t-74 21q-65 0 -115 -50l-12 15q56 54 129 54z" />
    <glyph glyph-name="three.dnom" horiz-adv-x="338" 
d="M123 230h25q62 -1 99.5 -29t37.5 -78q0 -55 -38 -89t-103 -34q-69 0 -122 35l11 17q47 -34 110 -34q56 0 88.5 28.5t32.5 74.5q0 45 -32 68.5t-90 23.5h-45v15l142 159h-200v18h226v-15z" />
    <glyph glyph-name="four.dnom" horiz-adv-x="361" 
d="M237 135v126h21v-126h66v-18h-66v-117h-21v117h-202v21l158 268h22l-159 -271h181z" />
    <glyph glyph-name="five.dnom" horiz-adv-x="360" 
d="M88 387v-159q45 15 86 15q63 0 100 -30.5t37 -81.5q0 -59 -37.5 -94.5t-101.5 -35.5q-69 0 -132 40l10 17q57 -39 121 -39q55 0 87 30t32 81q0 43 -32 69t-86 26t-105 -19v200h229v-19h-208z" />
    <glyph glyph-name="six.dnom" horiz-adv-x="385" 
d="M213 406q56 0 111 -26l-9 -17q-48 24 -101 24q-75 0 -113 -63t-28 -172q10 48 46 75.5t91 27.5q61 0 96 -33.5t35 -92.5q0 -60 -36.5 -94.5t-98.5 -34.5q-74 0 -115 50t-41 143q0 97 44 155t119 58zM208 237q-56 0 -90.5 -32.5t-34.5 -78.5q0 -39 31.5 -73.5t88.5 -34.5
q52 0 85 30.5t33 82.5q0 49 -31 77.5t-82 28.5z" />
    <glyph glyph-name="seven.dnom" horiz-adv-x="351" 
d="M132 0h-23l185 387h-234v-64h-20v83h275v-21z" />
    <glyph glyph-name="eight.dnom" horiz-adv-x="393" 
d="M197 406q59 0 93 -26t34 -72q0 -67 -75 -91q94 -22 94 -104q0 -54 -38.5 -83.5t-107.5 -29.5t-108 29.5t-39 83.5q0 81 95 104q-76 24 -76 92q0 46 34 71.5t94 25.5zM197 389q-51 0 -80 -22t-29 -60q0 -39 29 -61t80 -22q50 0 79 22t29 61q0 38 -29 60t-79 22zM196 206
q-58 0 -92 -24.5t-34 -66.5q0 -46 33.5 -71.5t93.5 -25.5q59 0 92.5 25.5t33.5 70.5q0 43 -33.5 67.5t-93.5 24.5z" />
    <glyph glyph-name="nine.dnom" horiz-adv-x="390" 
d="M178 0q-55 0 -112 26l10 17q45 -25 100 -25q76 0 114 63t28 173q-11 -49 -47 -76.5t-91 -27.5q-61 0 -96 34t-35 92q0 60 36.5 95t98.5 35q74 0 115 -50t41 -143q0 -97 -43.5 -155t-118.5 -58zM182 168q57 0 91 33t34 78q0 39 -31 73.5t-89 34.5q-52 0 -84.5 -30.5
t-32.5 -81.5q0 -49 30.5 -78t81.5 -29z" />
    <glyph glyph-name="zero.numr" horiz-adv-x="436" 
d="M217 699q81 0 125 -53t44 -150q0 -98 -44 -150.5t-125 -52.5q-80 0 -123.5 52.5t-43.5 150.5t43.5 150.5t123.5 52.5zM217 681q-71 0 -108.5 -47.5t-37.5 -137.5t37.5 -137.5t108.5 -47.5t109 47.5t38 137.5t-38 137.5t-109 47.5z" />
    <glyph glyph-name="one.numr" horiz-adv-x="241" 
d="M116 293v387h-89v19h110v-406h-21z" />
    <glyph glyph-name="two.numr" horiz-adv-x="374" 
d="M173 699q55 0 87.5 -26t32.5 -70q0 -58 -73 -129l-151 -162h254v-19h-278v21l161 172q66 66 66 116q0 36 -27 57t-74 21q-65 0 -115 -50l-12 15q56 54 129 54z" />
    <glyph glyph-name="three.numr" horiz-adv-x="338" 
d="M123 523h25q62 -1 99.5 -29t37.5 -78q0 -55 -38 -89t-103 -34q-69 0 -122 35l11 17q47 -34 110 -34q56 0 88.5 28.5t32.5 74.5q0 45 -32 68.5t-90 23.5h-45v15l142 159h-200v18h226v-15z" />
    <glyph glyph-name="four.numr" horiz-adv-x="361" 
d="M237 428v126h21v-126h66v-18h-66v-117h-21v117h-202v21l158 268h22l-159 -271h181z" />
    <glyph glyph-name="five.numr" horiz-adv-x="360" 
d="M88 680v-159q45 15 86 15q63 0 100 -30.5t37 -81.5q0 -59 -37.5 -94.5t-101.5 -35.5q-69 0 -132 40l10 17q57 -39 121 -39q55 0 87 30t32 81q0 43 -32 69t-86 26t-105 -19v200h229v-19h-208z" />
    <glyph glyph-name="six.numr" horiz-adv-x="385" 
d="M213 699q56 0 111 -26l-9 -17q-48 24 -101 24q-75 0 -113 -63t-28 -172q10 48 46 75.5t91 27.5q61 0 96 -33.5t35 -92.5q0 -60 -36.5 -94.5t-98.5 -34.5q-74 0 -115 50t-41 143q0 97 44 155t119 58zM208 530q-56 0 -90.5 -32.5t-34.5 -78.5q0 -39 31.5 -73.5t88.5 -34.5
q52 0 85 30.5t33 82.5q0 49 -31 77.5t-82 28.5z" />
    <glyph glyph-name="seven.numr" horiz-adv-x="351" 
d="M132 293h-23l185 387h-234v-64h-20v83h275v-21z" />
    <glyph glyph-name="eight.numr" horiz-adv-x="393" 
d="M197 699q59 0 93 -26t34 -72q0 -67 -75 -91q94 -22 94 -104q0 -54 -38.5 -83.5t-107.5 -29.5t-108 29.5t-39 83.5q0 81 95 104q-76 24 -76 92q0 46 34 71.5t94 25.5zM197 682q-51 0 -80 -22t-29 -60q0 -39 29 -61t80 -22q50 0 79 22t29 61q0 38 -29 60t-79 22zM196 499
q-58 0 -92 -24.5t-34 -66.5q0 -46 33.5 -71.5t93.5 -25.5q59 0 92.5 25.5t33.5 70.5q0 43 -33.5 67.5t-93.5 24.5z" />
    <glyph glyph-name="nine.numr" horiz-adv-x="390" 
d="M178 293q-55 0 -112 26l10 17q45 -25 100 -25q76 0 114 63t28 173q-11 -49 -47 -76.5t-91 -27.5q-61 0 -96 34t-35 92q0 60 36.5 95t98.5 35q74 0 115 -50t41 -143q0 -97 -43.5 -155t-118.5 -58zM182 461q57 0 91 33t34 78q0 39 -31 73.5t-89 34.5q-52 0 -84.5 -30.5
t-32.5 -81.5q0 -49 30.5 -78t81.5 -29z" />
    </font>
</defs>
</svg>
